<?xml version="1.0" standalone="no"?>
<!DOCTYPE svg PUBLIC "-//W3C//DTD SVG 1.1//EN" "http://www.w3.org/Graphics/SVG/1.1/DTD/svg11.dtd" >
<!--
2017-11-7: Created with FontForge (http://fontforge.org)
-->
<svg xmlns="http://www.w3.org/2000/svg" xmlns:xlink="http://www.w3.org/1999/xlink" version="1.1">
<metadata>
Created by FontForge 20160405 at Tue Nov  7 10:28:41 2017
 By Apache
Copyright (c) 2017, Apache
</metadata>
<defs>
<font id="Flaticon" horiz-adv-x="512" >
  <font-face 
    font-family="Flaticon"
    font-weight="400"
    font-stretch="normal"
    units-per-em="512"
    panose-1="2 0 5 3 0 0 0 0 0 0"
    ascent="448"
    descent="-64"
    bbox="-0.000946047 -64.002 512.019 448"
    underline-thickness="25.6"
    underline-position="-51.2"
    unicode-range="U+0020-F1BD"
  />
    <missing-glyph />
    <glyph glyph-name="space" unicode=" " horiz-adv-x="200" 
 />
    <glyph glyph-name="uniF155" unicode="&#xf155;" 
d="M4.28418 448h503.432v-353.473h-121.038v21.4219h99.6152v310.629h-460.586v-310.629h188.519v-21.4219h-209.941v353.473zM490.578 443.716l14.9961 -14.9961l-188.519 -197.088c-13.9258 -12.8535 -40.7041 -32.1338 -68.5537 -32.1338
c-12.8525 0 -26.7773 4.28418 -38.5596 14.9961c-40.7031 36.418 -196.017 207.8 -202.443 215.297l16.0664 13.9248c1.07031 -2.14258 160.669 -177.809 201.373 -214.227c33.2051 -28.9209 74.9785 14.9961 77.1211 17.1377zM22.1299 97.8203l-15.2529 15.0439
l155.696 157.869l15.2529 -15.043zM489.606 97.6641l-162.166 157.442l14.9238 15.3711l162.165 -157.442zM296.703 189.856l117.825 -94.2598v-5.35547c0 -3.21387 -2.1416 -6.42773 -4.28418 -8.56934l-115.683 -86.7617l-6.42676 3.21387
c-4.28516 2.1416 -6.42773 5.35547 -6.42773 10.7109v41.7744c-32.1328 -12.8545 -114.61 -46.0586 -149.958 -106.042l-4.28516 -8.56836l-9.64062 3.21387l-8.56836 3.21289l1.07129 9.64062l14.9961 74.9795c16.0674 83.5479 119.967 101.758 154.243 106.042
l-1.07129 54.627l6.42676 3.21387c4.28516 2.1416 8.56934 1.07031 11.7822 -1.07227zM305.271 27.0459l84.6191 63.1973l-88.9043 69.623l1.07129 -46.0576l-10.7109 -1.07129c-5.35645 0 -128.535 -9.64062 -143.531 -89.9756l-6.42773 -34.2764
c43.917 44.9873 108.186 70.6953 134.963 81.4062c5.35547 2.1416 9.64062 4.28418 11.7832 4.28418l5.35547 3.21289l6.42676 -3.21289c3.21387 -2.14355 5.35547 -5.35742 5.35547 -9.64062v-37.4893z" />
    <glyph glyph-name="uniF192" unicode="&#xf192;" 
d="M473.496 354.795c3.12207 -5.20312 7.28418 -13.5283 6.24219 -23.9326c-1.04199 -5.20312 -3.12305 -13.5283 -11.4482 -19.7725c-2.08105 -16.6504 -12.4873 -40.585 -40.585 -41.626c-1.04102 -1.04004 -2.08105 -1.04004 -3.12207 -1.04004
c-28.0977 0 -44.7471 13.5283 -50.9922 39.5439c-9.36523 7.28418 -12.4873 14.5684 -12.4873 20.8125c-1.04004 8.32422 3.12207 16.6504 6.24414 20.8125c-1.03906 10.4072 -1.03906 34.3418 14.5703 49.9512c19.7725 19.7725 53.0732 14.5693 54.1133 13.5283h1.04102
c2.08105 0 41.627 -13.5283 38.5049 -48.9102v-1.04102zM459.967 331.901c1.04199 5.20312 -3.12207 10.4062 -4.16406 12.4893l-3.12207 4.16211l3.12207 17.6924c1.04102 16.6504 -19.7715 24.9746 -23.9346 26.0156c-7.28418 1.04004 -26.0166 1.04004 -35.3818 -8.3252
c-11.4473 -11.4473 -8.3252 -35.3828 -8.3252 -36.4238l1.04102 -5.20312l-4.16211 -4.16211c-1.04004 -1.04102 -4.16211 -5.20312 -4.16211 -8.3252c1.04102 -1.04102 3.12207 -3.12207 5.20312 -4.16309l6.24414 -3.12207l1.04102 -5.20312
c3.12109 -17.6914 10.4062 -28.0977 34.3408 -28.0977c20.8125 1.04004 20.8125 24.9746 21.8535 26.0156v5.20312l4.16211 3.12207c6.24414 4.16309 6.24414 7.28516 6.24414 8.3252zM501.594 255.934l10.4062 -6.24512l-8.3252 -9.36621
c-22.8936 -24.9746 -44.7471 -34.3408 -81.1709 -34.3408c-32.2598 0 -57.2354 10.4062 -80.1299 33.3008l-9.36621 9.36621l49.9521 33.3018v8.3252h20.8125v-19.7725l-37.4629 -24.9766c15.6094 -12.4883 33.3008 -17.6914 56.1943 -17.6914
c24.9756 0 40.5859 5.20312 55.1553 17.6914l-37.4639 18.7314l-3.12207 17.6924l20.8125 3.12207l1.04199 -7.28418zM140.487 354.795c3.12207 -5.20312 7.28516 -13.5283 6.24316 -23.9336c-1.04102 -5.20312 -3.12207 -13.5283 -11.4473 -19.7725
c-2.08105 -16.6504 -12.4883 -40.585 -40.585 -41.626c-1.04102 -1.04004 -2.08203 -1.04004 -3.12207 -1.04004c-28.0986 0 -44.748 13.5283 -50.9922 39.5439c-9.36523 7.28418 -12.4873 14.5684 -12.4873 20.8125c-1.04004 8.32422 3.12207 16.6504 6.24414 20.8125
c-1.04004 10.4062 -1.04004 34.3418 14.5684 49.9521c19.7734 19.7725 53.0732 14.5693 54.1143 13.5283h1.04102c2.08105 0 41.626 -13.5283 38.5039 -48.9102v-1.04102zM126.959 331.901c1.04102 5.20312 -3.12207 10.4062 -4.16309 12.4893l-3.12207 4.16211
l3.12207 17.6924c1.04102 16.6504 -19.7725 24.9746 -23.9346 26.0156c-7.28516 1.04004 -26.0166 1.04004 -35.3818 -8.3252c-11.4482 -11.4473 -8.32617 -35.3828 -8.32617 -36.4238l1.04199 -5.20312l-4.16211 -4.16211
c-1.04004 -1.04102 -4.16211 -5.20312 -4.16211 -8.3252c1.03906 -1.04102 3.12012 -3.12207 5.20117 -4.16309l6.24512 -3.12207l1.04102 -5.20312c3.12207 -17.6914 10.4062 -28.0977 34.3408 -28.0977c20.8125 1.04004 20.8125 24.9746 21.8535 26.0156v5.20312
l4.16211 3.12207c6.24414 4.16309 6.24414 7.28516 6.24414 8.3252zM168.586 255.934l10.4062 -6.24414l-8.3252 -9.36621c-22.8945 -24.9746 -44.748 -34.3408 -81.1709 -34.3408c-32.2598 0 -57.2354 10.4062 -80.1299 33.3008l-9.36621 9.36621l49.9502 33.3008v8.3252
h20.8145v-19.7725l-37.4639 -24.9766c15.6094 -12.4883 33.3018 -17.6914 56.1953 -17.6914c24.9756 0 40.585 5.20312 55.1543 17.6914l-37.4629 18.7314l-3.12207 17.6924l20.8125 3.12207l1.04102 -7.28418zM301.789 389.138
c3.12109 -4.16309 6.24316 -12.4883 5.20508 -21.8535c-1.04102 -5.20508 -3.12207 -11.4482 -9.36621 -17.6924c-2.08203 -14.5684 -11.4473 -36.4219 -36.4229 -37.4629c-1.04102 -1.04004 -2.08105 -1.04004 -3.12207 -1.04004
c-24.9766 0 -39.5459 11.4473 -44.749 36.4229c-8.3252 6.24512 -10.4062 13.5293 -11.4473 18.7324c-1.04102 8.3252 3.12207 14.5693 5.20312 18.7314c-1.04004 9.36523 -1.04004 30.1777 12.4883 44.7471c17.6904 17.6904 46.8291 13.5273 47.8701 12.4873h1.04102
c1.04004 0 36.4219 -11.4463 34.3408 -44.7471v-1.04102zM282.017 362.081c4.16211 3.12207 5.20312 6.24414 5.20312 7.28418c0 4.16211 -3.12207 9.36523 -3.12207 10.4062l-3.12207 4.16211l3.12207 15.6094c0 14.5693 -15.6094 20.8125 -18.7314 21.8535
c-6.24414 1.04102 -20.8145 1.04102 -28.0986 -7.28418c-8.3252 -8.32422 -7.28516 -26.0156 -6.24414 -31.2188l1.04102 -5.20312l-4.16211 -4.16211c-1.04102 -1.04102 -3.12207 -4.16309 -3.12207 -6.24414c-2.08203 -1.04102 -0.000976562 -2.08105 1.04004 -3.12207
l6.24414 -3.12207l1.04102 -5.2041c3.12207 -17.6914 10.4072 -23.9346 28.0986 -23.9346c15.6094 1.04102 16.6504 21.8535 16.6504 21.8535v5.2041zM325.724 302.764l9.36523 -6.24316l-7.28418 -8.3252c-20.8125 -23.9346 -40.585 -33.3008 -71.8037 -33.3008
c-28.0977 0 -49.9512 9.36523 -69.7236 29.1377l-8.3252 8.3252l42.666 30.1787v7.28418h20.8125v-17.6914l-31.2188 -21.8535c13.5283 -10.4072 27.0566 -14.5693 45.7891 -14.5693c19.7725 0 33.3008 4.16309 45.7881 14.5693l-31.2197 16.6504l-2.08105 16.6504
l20.8125 3.12207l1.04102 -5.20312zM311.154 211.187l48.9111 -74.9277v-195.642h-208.131v270.569h159.22zM339.252 -38.5693h-0.000976562v168.584l-39.5439 60.3584h-126.959v-228.942h166.504zM318.438 142.503h36.4229v-20.8125h-57.2354v75.9678h20.8125v-55.1553z
M245.593 204.942v59.3174h20.8135v-59.3174h-20.8135zM193.562 67.5771v20.8125h104.065v-20.8125h-104.065zM193.562 25.9502v20.8125h124.878v-20.8125h-124.878zM193.562 -15.6748v20.8125h124.878v-20.8125h-124.878zM412.098 216.39h20.8125v-190.439h-83.252v20.8125
h62.4395v169.627zM99.9023 46.7627h62.4395v-20.8125h-83.252v190.439h20.8125v-169.627z" />
    <glyph glyph-name="uniF11C" unicode="&#xf11c;" 
d="M0 447.975h511.949v-106.656h-511.949v106.656zM490.618 362.65v63.9941h-469.287v-63.9941h469.287zM63.9941 383.981v21.3311h234.643v-21.3311h-234.643zM341.3 383.981v21.3311h31.9961v-21.3311h-31.9961zM415.959 383.981v21.3311h31.9961v-21.3311h-31.9961z
M0 319.987h511.949v-106.656h-79.9922v21.332h58.6611v63.9932h-469.287v-63.9932h251.709v-21.332h-273.04v106.656zM63.9941 255.994v21.3301h234.643v-21.3301h-234.643zM415.959 255.994v21.3301h31.9961v-21.3301h-31.9961zM231.444 170.669h-210.113v-63.9932h181.315
v-21.3311h-202.646v106.655h231.444v-21.3311zM63.9941 128.007v21.3311h146.118v-21.3311h-146.118zM21.3311 -21.3125h251.709v-21.3311h-273.04v106.656h207.979v-21.3311h-186.648v-63.9941zM63.9941 0.0195312v21.3311h164.25v-21.3311h-164.25zM467.154 209.065
c29.8633 -29.8633 45.8613 -70.3936 44.7969 -113.056c-1.06738 -88.5244 -74.6602 -159.983 -162.118 -159.983c-42.6621 0 -83.1914 17.0645 -111.989 46.9287c-29.8633 29.8633 -45.8623 70.3916 -44.7959 113.055c1.06641 88.5244 74.6592 159.984 162.117 159.984
c42.6631 0 83.1914 -17.0654 111.989 -46.9287zM348.766 -42.6436c76.793 0 139.72 61.8604 140.785 138.653c1.06738 37.3301 -12.7979 71.4609 -38.3955 98.124c-25.5977 26.6641 -59.7266 40.5293 -97.0576 40.5293c-76.792 0 -139.719 -61.8613 -140.785 -138.653
c-1.06738 -37.3301 12.7979 -71.46 38.3955 -98.124c25.5977 -26.6631 59.7275 -40.5293 97.0576 -40.5293zM351.965 255.994c41.5967 0 63.9941 -82.125 63.9941 -159.984s-22.3975 -159.983 -63.9941 -159.983c-41.5957 0 -63.9932 82.124 -63.9932 159.983
s22.3975 159.984 63.9932 159.984zM351.965 -42.6436c17.0654 0 42.6631 54.3945 42.6631 138.653s-25.5977 138.653 -42.6631 138.653c-17.0645 0 -42.6621 -54.3945 -42.6621 -138.653s25.5977 -138.653 42.6621 -138.653zM351.965 192
c89.5918 0 159.984 -42.6631 159.984 -95.9902s-70.3936 -95.9902 -159.984 -95.9902c-89.5898 0 -159.983 42.6631 -159.983 95.9902s70.3926 95.9902 159.983 95.9902zM351.965 21.3506c74.6592 0 138.653 34.1309 138.653 74.6592
c0 40.5293 -63.9941 74.6592 -138.653 74.6592s-138.652 -34.1299 -138.652 -74.6592c0 -40.5283 63.9932 -74.6592 138.652 -74.6592zM202.646 85.3447v21.3311h298.637v-21.3311h-298.637z" />
    <glyph glyph-name="uniF12B" unicode="&#xf12b;" 
d="M38.5605 249.841c27.8496 98.5439 118.896 167.097 220.653 167.097v-21.4229c-93.1895 0 -175.666 -62.126 -200.302 -151.029zM50.3428 187.715c0 -95.3301 64.2686 -177.808 156.385 -201.373l-5.35547 -21.4219c-101.757 25.707 -172.452 117.824 -172.452 222.795
h21.4229zM454.159 114.879l20.3516 -7.49707c-34.2764 -89.9756 -121.038 -148.888 -215.297 -148.888v21.4219c85.6895 0 163.883 53.5566 194.945 134.963zM338.477 404.084c89.9756 -34.2764 149.958 -119.967 149.958 -216.369h-21.4219
c0 86.7617 -54.6279 166.025 -136.033 196.018zM251.716 443.716l31.0625 -33.2061l-27.8496 -41.7725l-17.1377 11.7812l18.209 27.8496l-20.3516 20.3516zM37.4902 212.352l34.2754 -23.5654l-11.7822 -17.1377l-21.4229 13.9248l-25.707 -19.2803l-12.8535 17.1377z
M274.209 -6.15918l-14.9951 -21.4219l13.9248 -19.2803l-17.1387 -12.8545l-22.4941 31.0625l23.5654 34.2764zM501.289 206.996l10.7109 -18.21l-36.4189 -23.5645l-41.7734 26.7783l11.7822 18.21l29.9912 -19.2812z" />
    <glyph glyph-name="uniF12D" unicode="&#xf12d;" 
d="M374.647 448c17.1025 0 30.998 -13.8955 30.998 -30.998v-450.004c0 -17.1025 -13.8955 -30.998 -30.998 -30.998h-236.226c-17.1025 0 -30.998 13.8955 -30.998 30.998v450.004c0 17.1025 13.8955 30.998 30.998 30.998h236.226zM383.198 -31.9326v450.004
c0 5.3457 -4.27539 9.62012 -9.62012 9.62012h-236.226c-5.34473 0 -9.61914 -4.27539 -9.61914 -9.62012v-450.004c0 -5.34473 4.27441 -9.61914 9.61914 -9.61914h236.226c5.3457 0 9.62012 4.27441 9.62012 9.61914zM123.457 32.2012v21.377h272.567v-21.377h-272.567z
M117.043 342.18v21.377h277.912v-21.377h-277.912zM255.999 21.5127c14.9658 0 26.7236 -11.7588 26.7227 -26.7227c0 -14.9639 -11.7588 -26.7217 -26.7227 -26.7217s-26.7217 11.7568 -26.7217 26.7217c0 14.9639 11.7568 26.7227 26.7217 26.7227zM255.999 -10.5547
c3.20703 0 5.34473 2.13672 5.34473 5.34375s-2.1377 5.34473 -5.34473 5.34473c-3.20605 0 -5.34375 -2.1377 -5.34375 -5.34473s2.1377 -5.34375 5.34375 -5.34375zM202.556 384.936v21.3779h106.89v-21.3779h-106.89zM427.022 192.534v21.3779h74.8232v-21.3779h-74.8232
zM466.572 227.808l-24.5859 -24.584l24.5859 -24.585l-14.9648 -14.9648l-39.5498 39.5498l39.5498 39.5488zM10.1543 192.534v21.3779h74.8232v-21.3779h-74.8232zM60.3926 242.772l39.5479 -39.5488l-39.5479 -39.5498l-14.9648 14.9648l24.584 24.585l-24.584 24.584z
" />
    <glyph glyph-name="uniF1B8" unicode="&#xf1b8;" 
d="M256.001 448c126.933 0 255.999 -25.6006 256 -74.667c0 -49.0664 -129.067 -74.666 -256 -74.666c-126.934 0 -256.001 25.5996 -256.001 74.666s129.067 74.667 256.001 74.667zM256.001 320c142.933 0 234.666 32 234.666 53.333s-91.7334 53.334 -234.666 53.334
c-142.934 0 -234.667 -32.001 -234.667 -53.334c0 -21.334 91.7334 -53.333 234.667 -53.333zM490.667 373.333h21.334v-95.999c0 -49.0664 -129.067 -74.667 -256 -74.667c-126.934 0 -256.001 25.6006 -256.001 74.667v95.999h21.333v-95.999
c0 -21.334 91.7344 -53.334 234.668 -53.334c142.933 0 234.666 32.001 234.666 53.334v95.999zM490.667 271.999l21.334 10.668v-106.667c0 -49.0664 -129.067 -74.667 -256 -74.667c-126.934 0 -256.001 25.6006 -256.001 74.667v106.667l21.333 -10.668v-95.999
c0 -21.333 91.7344 -53.334 234.668 -53.334c142.933 0 234.666 32.001 234.666 53.334v95.999zM490.667 181.333h21.334v-96c0 -49.0664 -129.067 -74.666 -256 -74.666c-126.934 0 -256.001 25.5996 -256.001 74.666v96h21.333v-96
c0 -21.334 91.7344 -53.333 234.668 -53.333c142.933 0 234.666 32 234.666 53.333v96zM490.667 74.667l21.334 10.666v-74.666c0 -49.0664 -129.067 -74.667 -256 -74.667c-126.934 0 -256.001 25.6006 -256.001 74.667v74.666l21.333 -10.666v-64
c0 -21.334 91.7344 -53.334 234.668 -53.334c142.933 0 234.666 32.001 234.666 53.334v64z" />
    <glyph glyph-name="uniF1B2" unicode="&#xf1b2;" 
d="M0 416h512v-362.666h-512v362.666zM490.667 74.667v319.999h-469.334v-319.999h469.334zM118.399 -32v21.333h257.066v-21.333h-257.066zM443.733 250.666l1.06738 -21.333l-62.9346 -4.2666l-52.2656 100.267l-140.801 -146.133l-60.7998 61.8672l-60.7998 -54.4014
l-13.8662 14.9336l74.666 69.334l60.7998 -61.8672l146.134 152.533l59.7334 -114.134zM320.001 -21.334v80h21.333v-80h-21.333zM160 -21.334v80h21.333v-80h-21.333zM426.667 97.0654v105.601h21.333v-105.601h-21.333zM373.333 97.0654v105.601h21.333v-105.601h-21.333z
M256.001 97.0654v105.601h21.333v-105.601h-21.333zM320.001 97.0664v190.934h21.333v-190.934h-21.333zM181.334 97.0664v62.9336h21.333v-62.9336h-21.333zM117.334 97.0654v105.601h21.333v-105.601h-21.333zM53.334 97.0664v73.5996h21.333v-73.5996h-21.333z" />
    <glyph glyph-name="uniF196" unicode="&#xf196;" 
d="M0 -58.667v34.1338h21.333v-34.1338h-21.333zM82.1338 -58.667v62.9336h21.333v-62.9336h-21.333zM163.2 -58.667v105.601h21.333v-105.601h-21.333zM245.334 -58.667v149.334h21.333v-149.334h-21.333zM327.467 -58.668v245.334h21.333v-245.334h-21.333z
M408.534 -58.668v309.334h21.333v-309.334h-21.333zM490.667 -58.667v362.667h21.333v-362.667h-21.333zM15.8398 -3.77344l-12.2061 17.4951l459.251 320.429l12.2061 -17.4951zM412.8 352l74.667 -22.3994l-22.4004 -75.7344l-20.2656 5.33398l16 55.4658
l-54.3994 17.0674zM154.667 442.667c67.2002 0 121.6 -54.4014 121.6 -121.602c0 -33.0664 -12.7998 -62.9326 -35.2002 -86.4004l-7.46582 -7.46582l-89.6006 89.6006v125.867h10.667zM233.601 258.134c14.9326 18.1328 22.4004 39.4668 22.4004 62.9326
c0 52.2666 -39.4678 94.9336 -89.6006 100.268v-96.001zM132.267 313.601l83.2002 -83.2012l-7.4668 -7.4668c-22.4004 -22.3994 -53.333 -35.1992 -86.4004 -35.1992c-67.2002 0 -121.6 54.3994 -121.6 121.6s54.3994 121.601 121.6 121.601h10.667v-117.333z
M121.6 209.066c23.4678 0 45.8662 7.46777 62.9336 22.4014l-73.5996 73.5996v104.533c-50.1338 -5.33398 -89.6006 -48.001 -89.6006 -100.268c0 -55.4668 44.7998 -100.267 100.267 -100.267z" />
    <glyph glyph-name="uniF1AA" unicode="&#xf1aa;" 
d="M320.001 384h192v-149.333h-192v149.333zM490.667 256v106.667h-149.333v-106.667h149.333zM376.533 192.001v21.333h77.8672v-21.333h-77.8672zM405.334 202.666v42.667h21.333v-42.667h-21.333zM320.001 127.999h192v-149.333h-192v149.333zM490.667 -0.000976562
v106.667h-149.333v-106.667h149.333zM376.533 -64v21.333h77.8672v-21.333h-77.8672zM405.334 -53.335v42.668h21.333v-42.668h-21.333zM309.333 309.333h-21.333v-245.334h16v-21.333h-37.333v288h42.666v-21.333zM213.333 96v21.333h64.001v-21.333h-64.001zM117.334 448
c65.0654 0 117.334 -52.2666 117.334 -117.334s-52.2666 -117.334 -117.334 -117.334s-117.334 52.2666 -117.334 117.334s52.2666 117.334 117.334 117.334zM117.334 234.667c53.332 0 95.999 42.667 95.999 95.999c0 53.333 -42.667 96 -95.999 96
c-53.333 0 -96 -42.667 -96 -96c0 -53.332 42.666 -95.999 96 -95.999zM117.334 448c34.1338 0 53.333 -60.7988 53.333 -117.333c0 -56.5332 -19.1992 -117.333 -53.333 -117.333s-53.334 60.7988 -53.334 117.332c0 56.5342 19.2002 117.334 53.334 117.334z
M117.334 234.667c12.7998 0 32 37.333 32 95.999s-19.1992 96 -32 96c-12.7998 0 -32 -37.334 -32 -96s19.2002 -95.999 32 -95.999zM24.5332 373.333v21.333h184.533v-21.333h-184.533zM24.5332 266.667v21.333h184.533v-21.333h-184.533zM10.667 320v21.333h213.333
v-21.333h-213.333zM245.334 352h42.666v-32h-21.333v10.666h-21.333v21.334zM0 191.999h192v-149.333h-192v149.333zM170.666 63.999v106.667h-149.333v-106.667h149.333zM56.5342 0v21.333h77.8662v-21.333h-77.8662zM85.333 10.666v42.667h21.333v-42.667h-21.333z" />
    <glyph glyph-name="uniF14C" unicode="&#xf14c;" 
d="M127.734 446.403c70.2539 0 127.733 -57.4805 127.733 -127.734s-57.4795 -127.733 -127.733 -127.733s-127.734 57.4795 -127.734 127.733s57.4805 127.734 127.734 127.734zM127.734 212.225c58.5449 0 106.444 47.8994 106.444 106.444
s-47.8994 106.445 -106.444 106.445s-106.445 -47.8994 -106.445 -106.444s47.9004 -106.445 106.445 -106.445zM94.7363 388.923l107.509 -62.8018l-107.509 -80.8984v143.7zM116.024 351.667v-63.8672l47.9014 36.1914zM250.146 55.75l261.855 303.368v-421.521h-1.06445
h-482.196l164.989 173.505zM489.646 -41.1143v342.753l-239.501 -276.757l-56.416 56.415l-116.024 -122.411h411.941zM410.878 -52.8242v290.595h21.2881v-290.595h-21.2881zM324.657 -51.7588v190.536h21.2891v-190.536h-21.2891zM239.501 -53.8877v93.6719h21.2881
v-93.6719h-21.2881zM154.345 -52.8223v118.153h21.2891v-118.153h-21.2891zM491.775 421.921l17.0312 -13.8379l-262.919 -307.626l-53.2227 51.0947l-174.568 -190.538l-14.9033 13.8379l187.343 206.504l53.2227 -50.0293zM457.714 425.114h53.2217v-53.2227h-21.2891
v31.9336h-31.9326v21.2891z" />
    <glyph glyph-name="uniF197" unicode="&#xf197;" 
d="M27.2334 -42.2129h479.32v-21.7871h-501.107v512h21.7871v-490.213zM70.8086 287.864h83.8809v-349.686h-83.8809v349.686zM132.902 -40.0342v306.11h-40.3066v-306.11h40.3066zM180.834 170.213h79.5234v-234.213v0h-79.5234v234.213zM238.57 -42.2129v190.639h-35.9482
v-190.639h35.9482zM284.324 287.863h90.417v-340.971h-90.417v340.971zM352.954 -31.3193v297.396h-46.8428v-297.396h46.8428zM406.333 366.298h83.8799v-430.298h-83.8799v430.298zM468.426 -42.2129v386.723h-40.3066v-386.723h40.3066z" />
    <glyph glyph-name="uniF1A6" unicode="&#xf1a6;" 
d="M423.028 370.49c44.7588 -12.0088 75.3252 -43.667 75.3252 -79.6943c-2.18262 -46.9414 -53.4922 -85.1514 -116.811 -85.1514v21.834c51.3096 0 93.8848 28.3838 93.8848 63.3174c0 27.293 -25.1084 51.3096 -63.3174 60.043l-5.45801 1.0918l-2.18359 5.45898
c-14.1914 40.3926 -66.5918 68.7764 -126.635 68.7764c-57.8594 0 -110.26 -27.293 -125.544 -66.5938l-3.27539 -7.6416l-7.6416 1.09277c-3.27539 0 -7.64258 1.0918 -12.0088 1.0918c-51.3086 0 -93.8848 -28.3838 -93.8848 -63.3184
c0 -34.9336 41.4834 -63.3174 93.8848 -63.3174v-21.834c-63.3164 0 -115.718 38.21 -115.718 85.1514c0 46.9424 51.3096 85.1514 115.718 85.1514h5.45898c21.833 43.668 77.5098 72.0518 143.011 72.0518c66.5918 0 125.543 -31.6592 145.194 -77.5098zM255.999 137.962
c24.0176 0 43.668 -19.6504 43.668 -42.5762c0 -22.9248 -18.5586 -42.5752 -43.668 -42.5752c-24.0176 0 -43.667 19.6504 -43.667 42.5752c0 22.9258 19.6514 42.5762 43.667 42.5762zM255.999 75.7354c12.0088 0 21.835 9.82617 21.834 20.7432
c0 10.917 -8.7334 20.7422 -21.834 20.7422c-12.0068 0 -21.833 -9.82617 -21.833 -20.7422c0 -10.918 9.82422 -20.7432 21.833 -20.7432zM255.999 52.8105c37.1182 0 67.6846 -29.4746 67.6846 -65.501v-51.3096h-21.833v51.3096
c0 24.0176 -20.7422 43.667 -45.8516 43.667c-25.1084 0 -45.8506 -19.6494 -45.8506 -43.667v-51.3096h-21.833v51.3096c0 36.0244 30.5664 65.501 67.6836 65.501zM358.618 116.128c20.7422 0 37.1172 -16.376 37.1172 -36.0244
c0 -19.6504 -16.375 -36.0254 -37.1172 -36.0254s-37.1172 16.375 -37.1172 36.0254c0 19.6494 16.375 36.0244 37.1172 36.0244zM358.618 67.0029c8.7334 0 15.2842 6.5498 15.2842 14.1924c0 7.6416 -7.64258 14.1914 -15.2842 14.1914
c-8.7334 0 -15.2842 -6.5498 -15.2842 -14.1914s6.55078 -14.1924 15.2842 -14.1924zM357.527 50.627c30.5664 0 55.6748 -24.0166 55.6748 -54.583v-41.4844h-20.7422v40.3926c0 17.4658 -15.2832 32.75 -33.8418 32.75c-14.1924 0 -27.292 -8.73438 -32.75 -21.834
l-20.7422 7.6416c7.64258 21.833 29.4756 37.1172 52.4014 37.1172zM158.841 122.678c20.7412 0 37.1172 -16.375 37.1172 -36.0254s-17.4678 -36.0254 -37.1172 -36.0254c-20.7432 0 -37.1182 16.375 -37.1182 36.0254s16.375 36.0254 37.1182 36.0254zM158.841 73.5527
c8.73242 0 15.2832 6.55078 15.2832 14.1914c0 7.6416 -7.64258 14.1924 -15.2832 14.1924c-8.73438 0 -15.2842 -6.55078 -15.2842 -14.1924c0 -7.64062 6.5498 -14.1914 15.2842 -14.1914zM157.748 54.9941c24.0176 0 44.7588 -15.2832 52.4014 -37.1182l-20.7422 -7.6416
c-4.36621 13.0996 -17.4658 21.834 -32.75 21.834c-18.5576 0 -33.8418 -14.1914 -33.8418 -32.75v-39.3008h-20.7422v40.3926c0 29.4756 25.1084 54.584 55.6748 54.584zM245.083 171.805v98.251h21.833v-98.251h-21.833zM255.999 324.641
c9.82617 0 17.4678 -7.64258 17.4678 -17.4678s-7.6416 -17.4668 -17.4678 -17.4668c-9.8252 0 -17.4668 7.6416 -17.4668 17.4668c0 9.82617 7.6416 17.4678 17.4668 17.4678zM255.999 302.806c2.18457 0 4.36816 2.18457 4.36621 4.36621
c0 2.18359 -2.18262 4.36621 -4.36621 4.36621c-2.18262 0 -4.36621 -2.18262 -4.36621 -4.36621c0 -2.18262 2.18359 -4.36621 4.36621 -4.36621zM412.11 297.348c10.916 0 19.6504 -8.7334 19.6504 -19.6504s-8.73438 -19.6504 -19.6504 -19.6504
c-10.917 0 -19.6504 8.7334 -19.6504 19.6504s8.7334 19.6504 19.6504 19.6504zM409.927 277.697c0 -2.18262 4.36621 -2.18262 4.36621 0c0 1.09082 -1.09082 2.18359 -2.18262 2.18359s-2.18359 -1.0918 -2.18359 -2.18359zM151.198 275.515
c9.8252 0 18.5586 -8.73438 18.5586 -18.5596c0 -9.82617 -8.7334 -18.5596 -18.5586 -18.5596c-9.82617 0 -18.5596 8.7334 -18.5596 18.5596c0 9.8252 8.7334 18.5596 18.5596 18.5596zM151.198 253.681c2.18262 0 3.27441 1.09277 3.27441 3.27539
c0 2.18359 -2.18262 3.27539 -3.27441 3.27539c-2.18457 0 -3.27539 -1.0918 -3.27539 -3.27539c0 -2.18262 1.0918 -3.27539 3.27539 -3.27539zM344.426 167.438h32.751v-32.75h-21.834v10.917h-32.75l-1.0918 143.01h44.7588v-21.834h-22.9248zM185.04 267.872h39.3008
v-100.435h-55.6758l-1.0918 -12.0088l-21.834 2.18359l3.27539 31.6582h53.4922v56.7676h-17.4668v21.834z" />
    <glyph glyph-name="uniF11A" unicode="&#xf11a;" 
d="M446.518 40.3154c7.45215 -15.9658 2.12891 -39.3838 -17.0303 -68.126c-19.1611 -27.6758 -50.0293 -36.1914 -78.7695 -36.1914c-41.5137 0 -80.8984 17.0312 -83.0273 18.0957l-1.06445 1.06543c-7.45117 4.25781 -183.084 117.09 -244.822 241.63
c-21.2891 42.5781 -25.5479 81.9619 -13.8379 116.025c15.9658 46.835 57.4795 68.125 62.8018 70.2539c19.1602 10.6445 38.3203 -6.3877 46.8359 -18.0967l46.835 -69.1895c8.5166 -11.709 17.0322 -41.5127 -15.9658 -69.1885
c-26.6123 -21.2891 -6.3877 -51.0928 -6.3877 -52.1582c17.0322 -20.2246 44.707 -54.2871 50.0293 -58.5449l2.12891 -2.12891c39.3848 -40.4482 59.6084 -44.707 69.1895 -44.707c3.19336 0 9.58008 2.12988 14.9023 9.58105
c11.709 19.1602 26.6123 29.8047 42.5781 32.998c19.1602 3.19336 31.9336 -6.38574 32.998 -7.45117l71.3184 -45.7705c5.32227 -1.06543 15.9658 -5.32324 21.2881 -18.0967zM411.392 -15.0342c19.1602 29.8037 17.0312 43.6416 14.9004 47.9004
c-2.12891 5.32227 -8.51562 6.38672 -8.51562 6.38672h-2.12891l-2.12891 1.06445l-73.4463 46.8359c-1.06348 1.06445 -8.51562 5.32227 -18.0947 4.25781c-9.58008 -2.12988 -19.1602 -9.58105 -27.6758 -23.4189c-7.45215 -11.709 -18.0967 -18.0957 -30.8691 -19.1602
c-23.4189 -2.12891 -51.0947 13.8379 -86.2207 51.0938l-2.12891 2.12793c-7.4502 6.3877 -46.835 55.3525 -52.1572 61.7383c-11.708 17.0322 -23.418 54.2881 9.58008 80.8984c25.5469 21.2891 12.7744 39.3848 11.709 40.4492l-46.835 69.1895
c-3.19434 4.25781 -13.8379 14.9023 -18.0967 11.709l-1.06445 -1.06543s-38.3203 -18.0947 -52.1572 -58.5449c-9.58008 -28.7402 -5.32324 -62.8018 12.7734 -100.058c58.543 -114.96 225.662 -224.599 237.371 -233.114c8.51562 -4.25684 101.123 -41.5127 135.186 11.71
zM510.385 237.239c1.06543 -56.415 -20.2246 -108.573 -59.6084 -147.958l-14.9033 14.9023c35.127 35.127 54.2871 83.0273 54.2871 131.991c0 104.316 -86.2197 189.472 -192.665 189.472c-48.9639 0 -95.7998 -18.0947 -131.991 -51.0928l-14.9023 15.9658
c39.3848 37.2559 91.542 57.4805 145.829 57.4805c118.154 0 213.954 -94.7363 213.954 -210.761zM287.438 385.624l-0.555664 50.0225l21.2871 0.236328l0.554688 -50.0225zM448.503 224.469l-0.227539 21.2852l52.1504 0.557617l0.227539 -21.2852zM283.657 235.11
v0.00195312h40.4502v-14.9023h-60.6738v12.7734l26.6104 27.6758c5.32227 6.3877 9.58008 10.6445 12.7734 13.8379c2.12891 3.19336 4.25684 7.45117 4.25684 10.6445c0 3.19238 -1.06348 6.38574 -4.25684 9.5791c-3.19336 3.19238 -6.38672 4.25781 -10.6445 4.25781
c-7.45117 0 -13.8379 -4.25879 -18.0947 -11.709l-11.71 7.4502c4.25781 6.38574 8.5166 10.6445 12.7734 12.7734c4.25684 3.19238 10.6445 4.25684 18.0947 4.25684c7.45117 0 13.8379 -2.12793 19.1602 -7.4502c5.32227 -4.25781 8.51562 -10.6445 8.51562 -19.1602
c0 -4.25879 -1.06445 -8.51562 -3.19336 -12.7744c-2.12891 -4.25684 -6.38574 -9.5791 -12.7725 -15.9668zM386.909 256.4h10.6445v-13.8379h-10.6445v-22.3535h-13.8379v22.3535h-38.3213v12.7725l32.999 53.2227h15.9668l-31.9346 -53.2227h21.29v1.06543v15.9658
h13.8379v-15.9658z" />
    <glyph glyph-name="uniF1B5" unicode="&#xf1b5;" 
d="M351.999 74.668v234.666h21.333v-234.666h-21.333zM362.667 324.267l50.1318 -50.1328l-14.9326 -16.001l-35.1992 35.2012l-35.2002 -35.2012l-14.9336 16.001zM245.334 74.666v202.667h21.332v-202.667h-21.332zM256 292.267l50.1338 -50.1328l-14.9346 -16
l-35.1992 35.1992l-35.1992 -35.1992l-14.9346 16zM138.666 74.668v170.666h21.333v-170.666h-21.333zM149.334 260.267l50.1338 -50.1328l-14.9346 -16.001l-35.1992 35.2012l-35.2002 -35.2012l-14.9346 16.001zM233.6 445.866l11.7324 1.06641v-64.001l-9.59961 -1.06641
c-98.1338 -10.667 -171.733 -92.8008 -171.733 -190.934c0 -43.7324 14.9336 -86.3984 42.667 -120.532l6.40039 -7.4668l-45.8662 -44.7998l-7.4668 8.5332c-38.4004 45.8672 -59.7334 104.533 -59.7334 164.267c0 131.2 102.399 243.201 233.6 254.934zM224.001 403.2
v21.333c-114.134 -16 -202.667 -115.199 -202.668 -232.533c0 -51.2002 17.0664 -101.334 48 -141.866l14.9336 14.9336c-26.666 36.2666 -41.5996 81.0664 -41.5996 126.933c0 106.667 76.7998 195.2 181.334 211.2zM278.4 446.933
c131.2 -11.7334 233.6 -123.732 233.599 -254.931c0 -59.7334 -21.334 -118.4 -59.7344 -164.267l-7.46582 -9.60059l-45.8672 45.8662l6.40039 7.4668c27.7334 34.1318 42.667 76.7988 42.667 120.532c0 98.1338 -73.5996 180.267 -171.733 190.933l-9.59961 1.06738v64z
M442.667 50.1338c30.9326 40.5332 47.999 90.667 47.999 141.866c0 116.267 -88.5332 216.533 -202.667 232.533v-21.333c104.534 -16 181.334 -104.533 181.334 -211.2c0 -45.8662 -14.9336 -89.5996 -41.5996 -126.933zM385.067 49.0674l44.7998 -45.8672l-8.5332 -7.4668
c-46.9346 -38.3994 -105.601 -59.7324 -165.334 -59.7324s-118.4 21.333 -164.267 59.7324l-8.5332 7.4668l45.8672 45.8672l7.46582 -6.40039c34.1338 -27.7334 76.8008 -42.667 120.534 -42.667c44.7998 0 86.3994 14.9336 120.533 42.667zM256 -42.666
c51.2002 0 101.334 17.0664 141.866 48l-14.9336 14.9336c-36.2666 -26.666 -81.0664 -41.5996 -126.933 -41.5996s-89.6006 14.9336 -126.933 41.5996l-14.9336 -14.9336c40.5322 -30.9336 90.666 -48 141.866 -48z" />
    <glyph glyph-name="uniF1A4" unicode="&#xf1a4;" 
d="M224 448c107.733 0 222.935 -27.7334 222.935 -77.8672c0 -50.1328 -115.2 -78.9336 -222.934 -78.9336c-107.734 0 -222.934 27.7334 -222.934 78.9336c0 51.2012 115.199 77.8672 222.933 77.8672zM224 313.601c124.8 0 201.6 31.999 201.6 56.5332
c0 24.5332 -76.7998 56.5342 -201.6 56.5342s-201.6 -33.0674 -201.6 -56.5342s76.7998 -56.5332 201.6 -56.5332zM1.06738 8.5332v361.601h21.333v-361.601h-21.333zM425.6 221.867v148.267h21.333v-148.267h-21.333zM18.1328 130.134
c40.5332 -40.5342 102.4 -58.667 188.802 -58.668v-21.333c-3.2002 1.06641 -4.26758 1.06641 -6.40039 1.06641c-88.5332 0 -153.601 21.333 -197.334 64.001zM18.1328 247.466c40.5332 -40.5322 102.4 -58.665 188.802 -58.667v-21.333
c-3.2002 1.06738 -4.26758 1.06738 -6.40039 1.06738c-88.5332 0 -153.601 21.333 -197.334 64zM246.4 -41.5996l1.06641 -21.333h-2.13281c-14.9336 -1.06738 -28.8008 -1.06738 -42.667 -1.06738c-128 0 -194.134 24.5332 -201.6 71.4668l21.333 2.13281
c3.2002 -21.333 37.334 -57.5996 221.866 -51.1992h2.13379zM510.934 40.5332h-37.333c-1.06738 -4.26758 -3.2002 -9.60059 -5.33398 -13.8672l26.667 -26.666l-48.001 -48l-26.666 26.666c-4.2666 -2.13281 -8.5332 -4.2666 -13.8672 -5.33301v-37.334h-68.2656v37.334
c-4.2666 1.06641 -9.59961 3.2002 -13.8672 5.33301l-26.666 -26.666l-48 48l26.666 26.668c-2.13281 4.26562 -4.2666 8.5332 -5.33301 13.8662h-37.334v68.2666h37.334c1.06641 4.2666 3.2002 9.60059 5.33301 13.8662l-26.666 26.666l48 48l26.666 -26.667
c4.2666 2.13379 8.5332 4.2666 13.8672 5.33398v37.334h68.2656v-37.334c4.2666 -1.06738 9.59961 -3.2002 13.8672 -5.33398l26.666 26.667l48.001 -48.001l-26.667 -26.666c2.13379 -4.26758 4.2666 -8.5332 5.33398 -13.8662h37.333v-68.2666zM466.134 1.06738
l-23.4658 23.4658l4.26562 7.4668c4.2666 7.4668 7.4668 14.9336 9.59961 23.4668l2.13281 8.5332h30.9336v25.6006h-33.0664l-2.13281 8.5332c-2.13281 8.5332 -5.33301 16.001 -9.59961 23.4678l-4.2666 7.46582l23.4668 23.4678l-18.1328 18.1338l-23.4668 -23.4678
l-7.46582 4.2666c-7.46777 4.2666 -14.9336 7.4668 -23.4678 9.60059l-8.5332 2.13281v28.7998h-25.5996v-33.0674l-8.53418 -2.13281c-8.53223 -2.13281 -15.999 -5.33301 -23.4658 -9.59961l-7.46582 -4.26562l-23.4678 23.4668l-18.1328 -18.1338l23.4668 -23.4668
l-4.26562 -7.4668c-4.2666 -7.46777 -7.4668 -14.9336 -9.59961 -23.4668l-2.13281 -8.53418h-28.8008v-25.5996h33.0664l2.13379 -8.53418c2.13379 -8.5332 5.33398 -16 9.60059 -23.4668l4.26562 -7.46582l-23.4658 -23.4678l18.1328 -18.1338l23.4658 23.4668
l7.4668 -4.26562c7.46582 -4.2666 14.9326 -7.4668 23.4658 -9.59961l8.5332 -2.13281v-28.7998h23.4668v33.0664l8.5332 2.13379c8.53223 2.13281 16 5.33301 23.4658 9.59961l7.4668 4.26562l23.4668 -23.4668z" />
    <glyph glyph-name="uniF167" unicode="&#xf167;" 
d="M483.733 352l-174.934 -181.334l2.13379 -234.666l-108.801 75.7334l1.06738 157.867l-174.934 182.399h455.467zM223.467 22.4004l66.1338 -45.8672l-2.13379 201.6l146.135 151.469h-355.2l146.133 -152.534zM108.267 393.601
c2.13379 -3.2002 4.26562 -6.40039 4.26562 -11.7334c0 -5.33398 -1.06543 -8.53418 -4.26562 -11.7344c-2.13477 -3.19824 -6.40039 -4.26562 -11.7344 -4.26562c-5.33301 -0.000976562 -8.5332 1.06543 -11.7334 4.26562
c-2.13281 3.2002 -4.26562 6.40039 -4.26562 11.7344c0 5.33301 1.06543 8.5332 4.26562 11.7334c2.13379 3.19922 6.40039 4.26562 11.7334 4.26562c5.33398 0 8.53418 -1.06543 11.7344 -4.26562zM104 373.333c1.06738 2.13477 2.13281 5.33398 2.13281 8.53418
s-1.06543 6.40039 -2.13281 8.5332c-1.06543 2.13379 -4.26562 3.2002 -7.46582 3.2002c-3.19922 0 -5.33398 -1.06738 -7.4668 -3.2002c-1.06641 -2.13477 -2.13281 -5.33301 -2.13281 -8.5332s1.06543 -6.40039 2.13281 -8.53418
c1.06641 -2.13379 4.2666 -3.2002 7.4668 -3.2002c3.19824 0 5.33301 1.06738 7.46582 3.2002zM165.867 440.533c3.19922 -4.2666 5.33301 -9.59961 5.33301 -15.999c0 -6.40039 -2.13281 -12.7998 -5.33301 -16c-3.2002 -4.26758 -8.5332 -6.40039 -16 -6.40039
c-7.46582 0 -12.7998 2.13379 -16 6.40039s-5.33301 9.59961 -5.33301 16c0 6.39941 2.13281 12.7988 5.33301 15.999c3.19922 4.26758 8.53418 6.40039 16 6.40039c7.4668 0 12.7998 -2.13379 16 -6.40039zM159.467 412.801c2.13281 3.19824 3.2002 6.39844 3.2002 11.7334
c0 5.33301 -1.06738 8.5332 -3.2002 11.7334c-2.13281 3.19922 -5.33301 4.26562 -9.59961 4.26562c-4.2666 1.06738 -7.4668 -1.06543 -9.60059 -4.26562s-3.2002 -6.40039 -3.2002 -11.7334c0 -5.33398 1.06738 -8.53418 3.2002 -11.7334
c2.13477 -3.19922 5.33496 -4.2666 9.60059 -4.2666c4.2666 0 7.4668 1.06641 9.59961 4.2666zM321.601 393.601c2.13281 -3.2002 4.2666 -6.40039 4.2666 -11.7334c0 -5.33398 -1.06641 -8.53418 -4.2666 -11.7344c-2.13281 -3.19824 -6.40039 -4.26562 -11.7334 -4.26562
s-8.5332 1.06543 -11.7334 4.26562c-2.13281 3.2002 -4.2666 6.40039 -4.2666 11.7344c0 5.33301 1.06641 8.5332 4.2666 11.7334c2.13281 3.19922 6.40039 4.26562 11.7334 4.26562s8.5332 -1.06543 11.7334 -4.26562zM317.334 373.333
c1.06641 2.13477 2.13281 5.33398 2.13281 8.53418s-1.06641 6.40039 -2.13281 8.5332c-1.06641 2.13379 -4.2666 3.2002 -7.4668 3.2002s-5.33301 -1.06738 -7.4668 -3.2002c-1.06641 -2.13477 -2.13281 -5.33301 -2.13281 -8.5332s1.06738 -6.40039 2.13281 -8.53418
c1.06641 -2.13379 4.2666 -3.2002 7.4668 -3.2002s5.33301 1.06738 7.4668 3.2002zM379.2 440.533c3.2002 -4.2666 5.33398 -9.59961 5.33398 -15.999c0 -6.40039 -2.13379 -12.7998 -5.33398 -16c-3.2002 -4.26758 -8.5332 -6.40039 -15.999 -6.40039
c-7.4668 0 -12.7998 2.13379 -16 6.40039s-5.33301 9.59961 -5.33301 16c0 6.39941 2.13281 12.7988 5.33301 15.999c3.2002 4.26758 8.5332 6.40039 16 6.40039c7.46582 0 12.7988 -2.13379 15.999 -6.40039zM372.8 412.801c2.13379 3.19824 3.2002 6.39844 3.2002 11.7334
c0 5.33301 -1.06641 8.5332 -3.2002 11.7334c-2.13379 3.19922 -5.33398 4.26562 -9.59961 4.26562c-4.2666 0 -7.4668 -1.06543 -9.59961 -4.26562c-2.13379 -3.2002 -3.2002 -6.40039 -3.2002 -11.7334c0 -5.33398 1.06641 -8.53418 3.2002 -11.7334
c2.13281 -3.19922 5.33203 -4.2666 9.59961 -4.2666c4.2666 0 7.4668 1.06641 9.59961 4.2666zM411.2 448h32.001v-85.333h-13.8672v72.5332h-18.1338v12.7998zM187.2 448h31.999v-85.333h-13.8662v72.5332h-18.1328v12.7998z" />
    <glyph glyph-name="uniF15A" unicode="&#xf15a;" 
d="M208.672 67.2266h260.303v-21.5117h-275.361l-118.319 350.654h-75.2939v21.5137h91.4277zM133.378 226.42h378.622l-80.6719 -180.705h-235.563zM417.345 67.2266l61.3096 137.681h-315.159l47.3281 -137.681h206.521zM259.227 56.4707
c23.6641 0 44.1016 -20.4365 44.1006 -45.1768c0 -24.7393 -19.3613 -45.1768 -44.1006 -45.1768s-44.1006 20.4375 -44.1006 45.1768s20.4365 45.1768 44.1006 45.1768zM259.227 -11.2939c11.832 0 22.5879 10.7559 22.5879 23.6641s-9.68066 23.6641 -22.5879 23.6641
s-22.5879 -10.7559 -22.5879 -23.6641s10.7559 -23.6641 22.5879 -23.6641zM460.369 11.2939c1.07617 -24.7393 -19.3613 -45.1768 -44.1006 -45.1768s-44.1006 20.4375 -44.1006 45.1768s20.4375 45.1768 44.1006 45.1768s44.1006 -20.4375 44.1006 -45.1768z
M438.857 12.3701c1.0752 12.9072 -9.68164 23.6631 -22.5889 23.6641c-12.9072 0 -22.5879 -10.7559 -22.5879 -23.6641s10.7559 -23.6641 22.5879 -23.6641s22.5889 10.7568 22.5889 23.6641zM296.874 273.748l52.7061 -51.6299l-15.0596 -15.0596l-37.6465 36.5713
l-31.1934 -31.1934l-15.0596 15.0596zM394.757 280.202l57.0068 -55.9336l-16.1338 -15.0586l-40.873 40.874l-43.0264 -43.0254l-15.0576 16.1348zM162.42 152.202v21.5117h308.707v-21.5117h-308.707zM186.084 99.4961v21.5127h261.378v-21.5127h-261.378z" />
    <glyph glyph-name="uniF186" unicode="&#xf186;" 
d="M375.538 430.546c75.1064 0 136.462 -61.3555 136.462 -135.405s-61.3545 -135.405 -136.462 -135.405s-136.463 61.3555 -136.463 135.405c0 75.1074 61.3545 135.405 136.463 135.405zM375.538 181.951c63.4707 0 115.306 51.835 115.306 114.247
c0 62.4131 -51.835 114.248 -115.306 114.248c-63.4717 0 -115.306 -51.835 -115.306 -114.248c0 -63.4707 51.834 -114.247 115.306 -114.247zM179.787 101.418l-14.1338 15.7461l109.431 98.2256l14.1338 -15.7451zM162.909 136.463l37.0254 -42.3145l-162.909 -140.694
l-37.0254 42.3145zM29.6191 -6.34668l9.52148 -10.5781l130.115 113.19l-9.52051 10.5781zM26.4463 209.454v179.835h21.1562v-179.835h-21.1562zM68.7607 209.454v145.983h21.1562v-145.983h-21.1562zM112.132 209.454v120.595h21.1572v-120.595h-21.1572zM154.446 209.454
v179.835h21.1572v-179.835h-21.1572zM196.761 209.454v145.983h21.1572v-145.983h-21.1572zM302.545 208.397v117.421h21.1572v-117.421h-21.1572zM345.917 209.454v179.835h21.1562v-179.835h-21.1562zM388.231 209.454v145.983h21.1562v-145.983h-21.1562z
M430.546 209.454v120.595h21.1562v-120.595h-21.1562z" />
    <glyph glyph-name="uniF1BA" unicode="&#xf1ba;" 
d="M511.99 433.307c0 -2.09766 3.14746 -65.0479 -104.916 -248.65c-52.459 -89.1777 -220.324 -166.816 -226.619 -169.964l-7.34375 -3.14746l-89.1787 80.7852c-13.6387 16.7861 20.9844 78.6865 103.866 184.651c43.0166 55.6055 97.5723 98.6221 161.571 127.998
c75.54 34.6221 147.932 37.7695 151.079 38.8193h10.4912zM389.238 195.147c78.6875 134.293 96.5234 201.439 100.72 225.569c-23.082 -2.09863 -76.5889 -10.4922 -131.146 -35.6719c-60.8516 -28.3271 -113.31 -69.2441 -153.178 -121.702
c-91.2764 -114.359 -101.768 -151.08 -102.817 -159.474l74.4912 -67.1455c30.4258 14.6885 167.865 83.9336 211.93 158.424zM449.086 302.958l-100.741 85.5791l13.584 15.9912l100.741 -85.5791zM10.4912 163.673c98.6211 127.997 183.604 117.506 187.8 116.456
l-3.14746 -20.9824c-1.04883 0 -71.3418 7.34375 -157.374 -95.4736l69.2451 -13.6396l-4.19727 -19.9336l-102.817 19.9336zM348.321 145.837l20.9824 -3.14746c-23.082 -146.882 -115.407 -184.651 -118.556 -186.75l-10.4912 -4.19727l-34.6221 89.1787l19.9346 7.34375
l26.2285 -68.1953c23.082 13.6387 79.7363 56.6543 96.5234 165.768zM272.782 167.869c1.04883 -23.0811 -17.8359 -41.9658 -40.918 -44.0654c-1.04785 -1.04883 -1.04785 -1.04883 -2.09766 -1.04883c-10.4912 0 -20.9834 4.19629 -29.376 11.541
c-8.39355 7.34473 -12.5908 16.7861 -13.6396 28.3271c-1.0498 23.082 17.8369 41.9668 40.918 44.0654c11.5391 1.04883 23.0801 -3.14844 31.4736 -10.4922c8.39355 -7.34473 12.5898 -16.7861 13.6396 -28.3271zM231.864 142.689
c12.5898 1.04883 22.0332 10.4922 20.9834 22.0332c0 5.24512 -2.09863 9.44238 -6.29492 13.6387c-5.24609 4.19629 -10.4922 5.24609 -15.7373 5.24609h-1.0498c-12.5898 -1.0498 -22.0322 -10.4922 -20.9834 -22.0332c0 -5.24512 2.09961 -9.44238 6.2959 -13.6387
c4.19727 -4.19629 10.4912 -6.29492 16.7861 -5.24609zM364.059 258.097c1.0498 -23.0811 -17.835 -41.9658 -40.917 -44.0645c-1.04883 -1.0498 -1.04883 -1.0498 -2.09863 -1.0498c-10.4912 0 -20.9824 4.19629 -29.376 11.541s-12.5898 16.7871 -13.6396 28.3281
c-1.04883 23.082 17.8369 41.9668 40.918 44.0645c11.54 1.0498 23.0811 -3.14746 31.4736 -10.4912c8.39355 -7.34473 12.5898 -16.7871 13.6396 -28.3281zM323.143 232.917c12.5889 1.0498 22.0322 10.4912 20.9824 22.0322c0 5.24609 -2.09766 9.44336 -6.29492 13.6387
c-5.24609 4.19727 -10.4922 5.24609 -15.7373 5.24609h-1.0498c-12.5898 -1.0498 -22.0322 -10.4912 -20.9824 -22.0322c0 -5.24609 2.09766 -9.44336 6.29492 -13.6396c4.19727 -4.19531 10.4912 -6.29492 16.7871 -5.24512zM167.865 36.7236
c0 -3.14648 5.24609 -76.5879 -141.637 -94.4248l-14.6875 -2.09863l3.14746 14.6885c31.4746 140.589 82.8828 142.687 89.1787 142.687v-10.4912v-10.4912s-37.7695 -3.14844 -65.0479 -112.261c110.161 17.835 108.063 69.2441 108.063 70.2939z" />
    <glyph glyph-name="uniF19B" unicode="&#xf19b;" 
d="M351.934 407.718c32.8623 -36.04 33.9219 -84.8027 31.8018 -111.304l-21.2002 2.12012c1.06055 18.0195 2.12109 64.6621 -26.501 95.4033c-19.0811 21.2002 -48.7617 31.8008 -87.9834 32.8613c-37.1016 1.05957 -64.6621 -9.54004 -82.6836 -29.6816
c-24.3799 -27.5605 -22.2607 -66.7822 -21.2002 -74.2021c3.17969 -8.48047 9.54004 -24.3809 7.41992 -34.9814l-21.2002 4.23926c0 3.17969 -2.12109 12.7207 -6.36035 21.2012l-1.06055 3.17969c0 2.12012 -7.4209 55.1221 26.5 93.2842
c21.2012 24.3818 55.1221 37.1016 98.584 37.1016c45.582 0 80.5635 -13.7803 103.884 -39.2217zM389.035 293.233c2.12012 -3.17969 16.9609 -36.041 4.24023 -57.2432c-4.24121 -7.41992 -13.7803 -15.9004 -33.9219 -16.96
c-7.41992 -18.0205 -23.3203 -51.9424 -46.6416 -67.8428c-19.0811 -8.48047 -38.1611 -19.0811 -62.542 -19.0811c-16.9609 0 -37.1016 5.30078 -60.4229 18.0215l-1.06055 1.06055l-24.3809 19.0811c-19.0801 20.1406 -26.5 44.5215 -29.6807 56.1826
c-16.9609 7.4209 -26.502 18.0215 -28.6211 30.7412c-4.24023 21.2002 12.7207 38.1611 14.8408 40.2812l3.18066 3.17969h34.9814v-21.2002h-25.4414c-3.17969 -4.24023 -7.4209 -11.6602 -6.36035 -18.0215c1.05957 -7.4209 9.54004 -11.6602 15.9004 -14.8408
c6.35938 -3.17969 10.6006 -8.48047 12.7197 -14.8408c2.12109 -8.48047 8.48047 -28.6211 23.3223 -46.6416l22.2598 -16.96c43.4619 -24.3809 68.9023 -16.9609 97.5244 2.12012c20.1406 13.7803 34.9814 48.7617 39.2217 58.3018
c3.17969 7.41992 10.5996 12.7207 19.0801 12.7207s13.7812 2.12109 16.9609 6.36035c4.24121 7.4209 1.06055 21.2012 -2.11914 30.7412h-26.501v21.2012h40.2812zM244.869 308.075c10.6006 2.11914 22.2617 -2.12109 32.8633 -12.7217l-14.8408 -15.9004
c-4.24023 4.23926 -9.54102 8.47949 -14.8408 7.41992s-9.54102 -7.41992 -9.54102 -7.41992l-18.0215 10.6006c1.06055 2.12109 9.54004 15.9014 24.3809 18.0215zM305.292 325.035c25.4414 0 45.582 -16.96 45.582 -37.1016s-21.2012 -37.1016 -45.582 -37.1016
c-25.4404 0 -45.5811 16.96 -45.5811 37.1016s20.1396 37.1016 45.5811 37.1016zM305.292 272.033c13.7803 0 24.3809 7.41992 24.3809 15.9004s-11.6611 15.9004 -24.3809 15.9004c-12.7207 0 -24.3809 -7.41992 -24.3809 -15.9004s10.6006 -15.9004 24.3809 -15.9004z
M195.048 321.855c25.4404 0 45.582 -16.9609 45.582 -37.1016s-21.2012 -37.1016 -45.582 -37.1016c-25.4404 0 -45.582 16.9609 -45.582 37.1016s20.1406 37.1016 45.582 37.1016zM195.048 268.853c13.7803 0 24.3809 7.41992 24.3809 15.9004
s-11.6611 15.9004 -24.3809 15.9004c-12.7207 0 -24.3809 -7.41992 -24.3809 -15.9004s10.5996 -15.9004 24.3809 -15.9004zM490.8 34.584l21.2002 -97.5244h-512l1.06055 11.6602c0 2.12109 5.2998 56.1826 18.0205 102.823
c14.8398 50.8828 151.586 80.5635 167.486 83.7441l12.7207 3.18066v-28.6221l53.0029 -15.9004l51.9414 14.8408l-1.06055 13.7812v44.5215h21.2002v-38.1611c10.6006 -1.06055 31.8027 -6.36035 75.2637 -20.1416c78.4424 -24.3809 90.1035 -72.083 91.1641 -74.2021z
M22.2607 -41.7393v-0.000976562h462.178l-15.9004 71.0225c0 1.06055 -10.5996 38.1611 -76.3223 58.3027c-38.1611 11.6611 -57.2422 15.9014 -66.7832 18.0215l1.06055 -12.7207l-75.2627 -21.2002l-74.2031 21.2002v18.0215
c-54.0615 -12.7197 -130.386 -39.2217 -137.806 -65.7227c-9.54102 -31.8018 -14.8408 -68.9023 -16.9609 -86.9238zM177.027 123.626v37.1025h21.2002v-37.1025h-21.2002z" />
    <glyph glyph-name="uniF102" unicode="&#xf102;" 
d="M254.929 351.599c98.5439 0 178.879 -78.1924 178.879 -175.665c0 -96.4014 -80.335 -175.666 -178.879 -175.666c-98.5449 0 -178.879 78.1934 -178.879 175.666c0 96.4014 80.334 175.665 178.879 175.665zM254.929 21.6904c86.7617 0 157.456 68.5518 157.456 154.243
s-70.6934 154.243 -157.455 154.243s-157.457 -68.5518 -157.457 -154.243s70.6943 -154.243 157.456 -154.243zM253.858 351.599c64.2676 0 117.823 -78.1924 117.824 -175.665c0 -96.4014 -53.5566 -175.666 -117.824 -175.666
c-65.3398 0 -117.825 78.1934 -117.825 175.666c0 96.4014 53.5566 175.665 117.825 175.665zM253.858 21.6904c52.4844 0 96.4023 68.5518 96.4023 154.243s-43.916 154.243 -96.4014 154.243c-53.5566 0 -96.4023 -68.5518 -96.4023 -154.243
s43.916 -154.243 96.4014 -154.243zM243.146 10.9795v323.481h21.4229v-323.481h-21.4229zM103.9 235.916h304.199v-21.4219h-314.912zM103.9 109.523v21.4219h303.129v-21.4219h-303.129zM480.938 177.004h21.4229c0 -132.82 -110.326 -241.003 -246.36 -241.003
s-246.36 108.184 -246.36 241.004c0 132.819 110.327 241.004 246.36 241.004v-21.4229c-124.251 0 -224.938 -98.5449 -224.938 -219.582s100.687 -219.582 224.938 -219.582s224.938 98.5449 224.938 219.582zM227.079 448l50.3428 -38.5605l-33.2041 -46.0596
l-17.1387 12.8545l20.3516 28.9199l-33.2051 25.707z" />
    <glyph glyph-name="uniF116" unicode="&#xf116;" 
d="M490.967 160.104c20.1992 -17.0107 26.5791 -44.6543 15.9482 -69.1074c-10.6318 -24.4531 -34.0225 -40.4014 -61.666 -38.2754h-3.18945c-11.6943 1.06348 -23.3896 -4.25195 -31.8955 -12.7578s-12.7588 -19.1377 -11.6953 -29.7695v-3.18945
c1.06348 -26.5801 -13.8213 -49.9697 -38.2744 -59.5391c-9.56934 -3.19043 -18.0752 -5.31641 -25.5176 -5.31641c-17.0107 0 -34.0225 7.44336 -45.7178 20.2012l-2.12598 2.12598c-7.44238 8.50586 -19.1377 13.8213 -30.833 13.8213s-23.3906 -5.31543 -30.833 -13.8213
l-2.12598 -2.12598c-18.0742 -20.2012 -46.7803 -25.5166 -71.2344 -14.8848c-24.4531 10.6328 -39.3379 34.0225 -38.2744 59.5391v3.18945c1.0625 11.6963 -3.18945 22.3271 -11.6953 29.7695c-8.50488 8.50488 -20.2002 12.7578 -31.8955 12.7578h-3.18945
c-27.6436 -1.06348 -51.0342 13.8223 -61.666 38.2754c-9.56934 24.4531 -3.18945 51.0322 15.9473 69.1074l2.12695 2.12598c8.50488 7.44238 13.8213 18.0742 13.8213 29.7695s-5.31641 22.3271 -13.8213 29.7695l-2.12695 2.12598
c-20.1992 17.0107 -26.5791 44.6543 -15.9473 69.1074c10.6328 24.4531 34.0225 40.4014 61.666 38.2754h3.18945c11.6943 0 23.3896 4.25195 31.8955 12.7578s12.7588 19.1377 11.6953 29.7695v3.18945c-1.06348 26.5801 13.8213 49.9697 38.2744 59.5391
c25.5166 10.6318 53.1602 4.25293 71.2344 -14.8848l2.12598 -2.12598c7.44336 -8.50586 19.1377 -13.8213 30.833 -13.8213s23.3906 5.31543 30.833 13.8213l2.12598 2.12598c18.0742 20.2012 46.7803 25.5176 71.2344 14.8848
c24.4531 -10.6328 39.3369 -34.0225 38.2744 -59.5391v-3.18945c-1.0625 -11.6963 3.18945 -22.3271 11.6953 -29.7695c8.50586 -8.50488 20.2002 -12.7578 31.8955 -12.7578h3.18945c27.6436 1.06348 51.0342 -13.8223 61.666 -38.2754
c9.56934 -24.4531 3.18945 -51.0322 -15.9473 -69.1074l-2.12695 -2.12598c-8.50488 -7.44238 -13.8213 -18.0742 -13.8213 -29.7695s5.31641 -22.3271 13.8213 -29.7695zM485.65 100.565c5.31641 12.7588 5.31641 30.832 -10.6318 44.6543l-2.12598 2.12598
c-12.7578 11.6953 -21.2637 28.7051 -21.2637 45.7168s7.44238 34.0215 21.2637 45.7168l2.12598 2.12598c15.9482 13.8223 15.9482 31.8955 10.6318 44.6543c-5.31543 12.7598 -19.1377 26.5811 -40.4014 25.5176h-3.18945
c-18.0752 -1.0625 -35.0859 5.31641 -47.8438 18.0752c-12.7578 12.7578 -19.1377 28.7061 -18.0742 46.7803v3.18945c1.06348 20.2012 -11.6953 34.0225 -24.4531 39.3389c-13.8213 5.31543 -32.959 6.37793 -47.8447 -9.56934l-2.12598 -2.12598
c-11.6953 -12.7598 -28.7061 -20.2012 -46.7803 -20.2012s-35.085 7.44336 -46.7803 20.2012l-2.12598 2.12598c-14.8857 15.9482 -34.0234 15.9482 -47.8447 9.56934c-12.7578 -5.31641 -26.5791 -18.0752 -24.4531 -39.3389v-3.18945
c1.0625 -17.0117 -5.31641 -34.0225 -18.0752 -46.7803c-12.7588 -12.7598 -29.7695 -19.1377 -47.8438 -18.0752h-3.19043c-22.3271 1.0625 -35.085 -12.7588 -40.4004 -25.5176c-5.31641 -12.7588 -5.31641 -30.832 10.6318 -44.6543l2.12598 -2.12598
c12.7578 -11.6943 21.2637 -28.7051 21.2637 -45.7168s-7.44238 -34.0215 -21.2637 -45.7168l-2.12598 -2.12598c-15.9482 -13.8223 -15.9482 -31.8955 -10.6318 -44.6543c5.31543 -12.7598 19.1367 -26.5811 40.4004 -25.5176h3.19043
c18.0742 1.0625 35.0859 -5.31641 47.8438 -18.0752c12.7588 -12.7578 19.1377 -28.7061 18.0752 -46.7803v-3.18945c-1.0625 -20.2012 11.6953 -34.0225 25.5166 -39.3389c13.8213 -5.31543 32.959 -6.37793 47.8447 9.56934l2.12598 2.12598
c10.6318 12.7598 27.6426 20.2012 45.7168 20.2012s35.085 -7.44336 46.7803 -20.2012l2.12598 -2.12598c14.8857 -15.9482 34.0234 -15.9482 47.8447 -9.56934c12.7578 5.31641 26.5791 18.0752 24.4531 39.3389v3.18945c-1.06348 17.0117 5.31641 34.0225 18.0742 46.7803
c12.7588 12.7598 29.7705 19.1377 47.8438 18.0752h3.18945c22.3281 -1.0625 35.0859 12.7588 40.4014 25.5176zM254.937 346.164c91.4346 0 165.858 -68.0439 165.858 -150.974c0 -82.9287 -74.4238 -150.973 -165.858 -150.973
c-91.4355 0 -165.858 68.0439 -165.858 150.973c0 82.9297 74.4229 150.974 165.858 150.974zM254.937 65.4795c79.7393 0 144.595 58.4766 144.595 129.71c0 72.2979 -64.8555 129.71 -144.595 129.71s-144.595 -58.4756 -144.595 -129.71
c0 -71.2334 64.8555 -129.71 144.595 -129.71zM208.156 251.538l30.8311 -89.3086h-12.7578l-9.56934 27.6436h-31.8955l-9.56738 -27.6436h-11.6963l30.833 89.3086h13.8223zM189.019 199.443h25.5156l-8.50586 25.5166
c-2.12598 5.31641 -3.18848 10.6318 -4.25195 15.9482c-1.0625 -5.31641 -3.18848 -10.6318 -4.25195 -15.9482zM300.654 245.16c5.31641 -4.25391 8.50586 -10.6318 8.50586 -19.1387c0 -8.50586 -2.12598 -14.8848 -7.44238 -19.1377
c-6.37891 -6.37793 -15.9473 -9.56836 -27.6426 -9.56836c-3.19043 0 -6.37988 0 -9.56934 1.06445v-36.1494h-11.6953v88.2451c5.31543 1.0625 12.7578 2.12695 22.3271 2.12695c11.6953 0 20.2012 -2.12695 25.5166 -7.44238zM274.074 205.821
c13.8213 0 23.3906 6.37988 23.3896 19.1387c0 11.6953 -8.50586 17.0117 -21.2637 17.0117c-5.31641 0 -9.56836 0 -10.6318 -1.06348v-34.0234h-1.0625c2.12598 -1.06348 5.31543 -1.06348 9.56836 -1.06348zM325.107 162.23v89.3096h11.6953v-89.3096h-11.6953z" />
    <glyph glyph-name="uniF136" unicode="&#xf136;" 
d="M0 416h512v-395.732h-512v395.732zM490.667 41.5986v353.067h-469.334v-353.067h469.334zM10.667 84.2666v21.333h490.666v-21.333h-490.666zM358.4 -19.2002l3.2002 -12.7988h-212.267l2.13379 12.7988c7.46582 36.2676 30.9336 60.8008 57.5996 60.8008h91.7334
c26.666 0 50.1338 -24.5332 57.5996 -60.8008zM177.066 -10.667h157.867c-7.4668 19.1992 -19.2002 30.9326 -33.0664 30.9326h-91.7344c-13.8662 0 -26.666 -11.7334 -33.0664 -30.9326zM417.067 332.801l19.2002 -8.53418l-85.334 -186.667l-65.0664 166.4
l-89.6006 -153.601l-66.1328 39.4668l-58.667 -56.5332l-14.9326 14.9336l70.3994 68.2656l61.8662 -36.2666l101.333 172.801l62.9346 -161.067zM441.601 346.667l17.0664 -83.2002l-21.334 -5.33301l-12.7988 62.9326l-59.7344 -13.8662l-4.2666 21.333zM240 53.334
v21.333h31.999v-21.333h-31.999z" />
    <glyph glyph-name="uniF10B" unicode="&#xf10b;" 
d="M488.727 156.033h21.1582v-220.033h-507.77v220.033h21.1582v-198.877h465.453v198.877zM351.206 94.6777v338.512h21.1572v-338.512h-21.1572zM361.785 448l70.876 -70.876l-14.8105 -14.8105l-56.0654 56.0674l-56.0664 -56.0674l-14.8096 14.8105zM139.636 94.6777
v338.512h21.1572v-338.512h-21.1572zM206.281 165.554l14.8096 -14.8096l-70.875 -70.876l-70.877 70.876l14.8105 14.8096l56.0664 -56.0664z" />
    <glyph glyph-name="uniF1BB" unicode="&#xf1bb;" 
d="M5.33301 331.733h350.934v-395.733h-350.934v395.733zM334.934 -42.667v353.067h-308.268v-353.067h308.268zM87.4678 211.2v21.333h165.333v-21.333h-165.333zM87.4678 152.533v21.333h125.867v-21.333h-125.867zM87.4678 93.8672v21.333h131.2v-21.333h-131.2z
M87.4678 32v21.333h165.333v-21.333h-165.333zM112.001 386.133h319.999v-408.533h-21.333v387.2h-298.666v21.333zM186.667 446.933l320 1.06738v-438.4h-21.333v417.067l-298.667 -1.06738v21.333z" />
    <glyph glyph-name="uniF15B" unicode="&#xf15b;" 
d="M245.243 395.294c-112.94 0 -204.37 -94.6553 -204.37 -210.823c0 -68.8398 33.3457 -134.454 88.2031 -173.177l-12.9082 -18.2852c-61.3115 43.0244 -96.8066 115.093 -96.8066 191.462c0 127.999 101.109 232.336 225.882 232.336v-21.5127zM219.429 448
l46.252 -35.4951l-33.3447 -48.4043l-17.21 12.9082l21.5127 30.1182l-30.1182 23.6631zM366.79 403.899c77.4453 -39.7988 125.849 -119.395 125.848 -208.672c0 -128 -101.109 -232.336 -225.882 -232.336v21.5117c112.941 0 204.369 94.6553 204.369 210.824
c0 80.6719 -44.1006 153.815 -114.017 189.311zM273.21 -24.2012l30.1172 -22.5889l-12.9072 -17.21l-47.3271 35.4961l33.3438 48.4033l17.2109 -12.9072zM311.934 204.907c9.67969 -7.52832 13.9824 -19.3604 13.9824 -34.4189
c0 -15.0596 -5.37793 -26.8906 -16.1338 -36.5713c-10.7559 -9.68164 -24.7393 -15.0596 -41.9492 -15.0596v-18.2861h-18.2861v18.2852c-23.6641 2.15137 -45.1768 11.832 -63.4619 27.9668l19.3613 22.5879c13.9824 -12.9082 29.042 -20.4375 45.1758 -22.5879v50.5547
c-19.3613 4.30273 -33.3428 10.7568 -43.0244 18.2861c-8.60449 7.5293 -13.9824 18.2852 -13.9824 33.3438c0 15.0596 5.37793 26.8906 16.1338 36.5723c10.7559 9.68066 23.6631 15.0586 40.873 15.0586v12.9072h16.1348v-12.9072
c19.3613 -1.07617 36.5713 -7.52832 53.7812 -19.3613l-17.21 -23.6641c-11.832 8.60547 -23.6641 12.9082 -36.5713 15.0596v-48.4043h1.07617c19.3613 -4.30176 34.4189 -10.7559 44.1006 -19.3613zM249.547 227.496v45.1768
c-8.60449 -1.07617 -13.9824 -3.22754 -18.2861 -7.53027c-4.30273 -4.30273 -6.4541 -8.60547 -6.4541 -13.9834s2.15137 -10.7568 5.37891 -13.9834c3.22656 -3.22559 9.67969 -6.45312 19.3613 -9.67969zM285.042 152.202c4.30176 4.30176 7.5293 8.60449 7.5293 15.0586
c0 6.45508 -2.15137 10.7568 -5.37793 13.9834c-3.22754 3.22656 -10.7568 6.45312 -21.5127 9.68066v-46.252c8.60547 1.07617 15.0596 4.30176 19.3613 7.5293z" />
    <glyph glyph-name="uniF178" unicode="&#xf178;" 
d="M405.147 370.087c15.583 0 28.9395 -13.3574 28.9395 -28.9395v-298.295c0 -15.583 -13.3564 -28.9395 -28.9395 -28.9395h-298.295c-15.583 0 -28.9395 13.3564 -28.9395 28.9395v298.295c0 15.583 13.3564 28.9395 28.9395 28.9395h298.295zM411.826 42.8525v298.295
c0 3.33984 -3.33887 6.67871 -6.67871 6.67871h-298.295c-3.33984 0 -6.67871 -3.33887 -6.67871 -6.67871v-298.295c0 -3.33984 3.33887 -6.67871 6.67871 -6.67871h298.295c3.33984 0 6.67871 3.33887 6.67871 6.67871zM345.044 324.452
c24.4863 0 44.5205 -20.0342 44.5205 -44.5215v-178.087c0 -25.5996 -20.0352 -44.5225 -44.5215 -44.5225h-178.087c-24.4873 0 -44.5225 20.0352 -44.5225 44.5225v178.087c0 24.4873 20.0352 44.5215 44.5225 44.5215h178.088zM367.305 101.844h-0.00195312v178.087
c0 12.2422 -10.0166 22.2598 -22.2598 22.2598h-178.087c-12.2432 0 -22.2607 -10.0166 -22.2607 -22.2598v-178.087c0 -12.2422 10.0176 -22.2607 22.2607 -22.2607h178.088c12.2432 0 22.2607 10.0176 22.2607 22.2607zM307.2 264.348
c15.583 0 27.8262 -12.2432 27.8262 -27.8252v-99.0605c0 -15.583 -12.2432 -28.9395 -27.8262 -28.9395h-99.0615c-15.5811 0 -27.8252 12.2422 -27.8252 27.8252v100.174c0 15.582 12.2422 27.8262 27.8252 27.8262h99.0615zM312.766 137.461v99.0605
c0 3.33984 -2.22656 5.56543 -5.56543 5.56543h-99.0615c-3.33887 0 -5.56445 -2.22559 -5.56445 -5.56543v-99.0605c0 -3.33984 2.22559 -5.56543 5.56445 -5.56543h99.0615c3.33887 0 5.56543 2.22559 5.56543 5.56543zM422.957 318.888v22.2598h89.043v-22.2598h-89.043z
M422.957 273.253v22.2607h89.043v-22.2607h-89.043zM422.957 226.505v22.2607h89.043v-22.2607h-89.043zM422.957 180.87v22.2607h89.043v-22.2607h-89.043zM422.957 135.234v22.2607h89.043v-22.2607h-89.043zM422.957 88.4873v22.2607h89.043v-22.2607h-89.043z
M422.957 42.8525v22.2598h89.043v-22.2598h-89.043zM0 318.888v22.2598h79.0264v-22.2598h-79.0264zM0 273.253v22.2607h79.0264v-22.2607h-79.0264zM0 226.505v22.2607h79.0264v-22.2607h-79.0264zM0 180.87v22.2607h79.0264v-22.2607h-79.0264zM0 135.234v22.2607h79.0264
v-22.2607h-79.0264zM0 88.4873v22.2607h79.0264v-22.2607h-79.0264zM0 42.8525v22.2598h79.0264v-22.2598h-79.0264zM382.888 358.957v89.043h22.2598v-89.043h-22.2598zM337.253 358.957v89.043h22.2607v-89.043h-22.2607zM290.505 358.957v89.043h22.2607v-89.043
h-22.2607zM244.869 358.957v89.043h22.2607v-89.043h-22.2607zM199.234 358.957v89.043h22.2607v-89.043h-22.2607zM152.486 358.957v89.043h22.2607v-89.043h-22.2607zM106.853 358.957v89.043h22.2598v-89.043h-22.2598zM382.888 -64v79.0264h22.2598v-79.0264h-22.2598z
M337.253 -64v79.0264h22.2607v-79.0264h-22.2607zM290.505 -64v79.0264h22.2607v-79.0264h-22.2607zM244.869 -64v79.0264h22.2607v-79.0264h-22.2607zM199.234 -64v79.0264h22.2607v-79.0264h-22.2607zM152.486 -64v79.0264h22.2607v-79.0264h-22.2607zM106.853 -64
v79.0264h22.2598v-79.0264h-22.2598z" />
    <glyph glyph-name="uniF10C" unicode="&#xf10c;" 
d="M428.826 262.211h21.6045v-326.211h-388.861v326.211h21.6045v-304.608h345.652v304.608zM256 448l256 -238.717l-15.123 -15.123l-240.877 224.675l-240.877 -224.675l-15.123 15.123zM179.308 121.789h153.384v-138.262h-153.384v138.262zM311.088 5.13184h0.000976562
v95.0547h-110.177v-95.0547h110.176zM302.446 186.6l12.9629 -32.4053l-19.4424 -8.64062l-12.9619 32.4043c-8.6416 20.5234 -31.3242 31.3252 -49.6875 23.7637l-7.56055 -3.24023c-8.6416 -3.24121 -15.123 -9.72168 -19.4434 -19.4434s-4.32031 -21.6035 0 -31.3252
l12.9619 -31.3242l-20.5234 -7.5625l-12.9629 31.3252c-6.48145 15.123 -6.48145 33.4854 0 47.5273s17.2832 24.8438 31.3252 31.3252l7.56055 3.24023c30.2441 11.8828 64.8105 -4.32031 77.7715 -35.6445zM241.958 29.9756v31.3242h21.6025v-31.3242h-21.6025z" />
    <glyph glyph-name="uniF115" unicode="&#xf115;" 
d="M64 256c35.2002 0 64 -28.8008 64 -64.001c0 -35.1992 -28.7998 -64 -64 -64c-35.1992 0 -64 28.8008 -64 64c0 35.2002 28.8008 64.001 64 64.001zM64 149.333c23.4678 0 42.667 19.2002 42.667 42.668c0 23.4668 -19.2012 42.667 -42.667 42.667
c-23.4668 0 -42.667 -19.2002 -42.667 -42.667c0 -23.4678 19.2002 -42.668 42.667 -42.668zM448 63.999c35.2002 0 64 -28.7998 64 -64c0 -35.1992 -28.8008 -64 -64 -64c-35.2002 0 -64 28.8008 -64 64c0 35.2002 28.7998 64 64 64zM448 -42.667
c23.4668 0 42.667 19.2002 42.667 42.667c0 23.4678 -19.2002 42.667 -42.667 42.667c-23.4678 0 -42.667 -19.1992 -42.667 -42.667c0 -23.4668 19.2012 -42.667 42.667 -42.667zM448 448c35.2002 0 64 -28.8008 64 -64c0 -35.2002 -28.8008 -64 -64 -64
c-35.2002 0 -64 28.7998 -64 64c0 35.1992 28.7998 64 64 64zM448 341.333c23.4668 0 42.667 19.1992 42.667 42.667c0 23.4668 -19.2002 42.667 -42.667 42.667c-23.4678 0 -42.667 -19.2002 -42.667 -42.667c0 -23.4678 19.2012 -42.667 42.667 -42.667zM115.754 206.485
l-10.3311 18.6641l284.634 157.559l10.3311 -18.6641zM390.125 6.70801l-281.834 156.009l10.332 18.6641l281.834 -156.009z" />
    <glyph glyph-name="uniF14F" unicode="&#xf14f;" 
d="M22.2607 389.391h467.478v-356.175h-467.478v356.175zM467.479 55.4766v311.652h-422.956v-311.652h422.956zM0 368.242v22.2607h512v-22.2607h-512zM183.652 435.024h155.826v-66.7822h-155.826v66.7822zM317.217 390.503v22.2607h-111.305v-22.2607h111.305z
M146.824 -49.7051l-18.6172 12.2061l54.9258 83.7773l18.6182 -12.2061zM346.965 -51.0166l-61.3955 87.4443l18.2188 12.791l61.3945 -87.4443zM255.498 -43.5322l-22.2568 0.238281l0.928711 86.8057l22.2578 -0.238281zM394.018 300.347l20.0352 -11.1309
l-146.922 -146.922l-66.7832 66.7832l-87.9307 -75.6875l-14.4697 16.6953l102.4 89.0449l66.7832 -65.6709zM365.078 314.815h60.1045v-60.1035h-22.2607v37.8428h-37.8438v22.2607z" />
    <glyph glyph-name="uniF1BD" unicode="&#xf1bd;" 
d="M486.191 278.139c17.001 -20.1885 23.376 -47.8145 18.0625 -81.8154c-12.75 -83.9414 -108.38 -94.5664 -157.257 -94.5664c-15.9385 0 -26.5635 1.06348 -28.6885 1.06348l2.125 21.25c1.0625 0 148.756 -14.875 162.568 75.4414
c4.25098 27.626 0 48.876 -12.75 63.752c-20.1885 23.377 -56.3154 22.3145 -56.3154 22.3145h-13.8125l3.1875 13.8125s5.3125 24.4385 -8.5 47.8145c-10.626 18.0635 -42.502 17.001 -54.1895 15.9385l-8.50098 -1.06348l-3.1875 7.4375
c-9.56348 22.3135 -26.5645 39.3145 -51.0029 48.877c-30.8125 12.751 -69.0654 10.627 -100.941 -4.25c-34 -15.9375 -46.751 -53.126 -52.0645 -81.8154c-3.18652 -17 -15.9375 -29.751 -31.875 -32.9385c-23.377 -4.25 -66.9414 -34.002 -66.9414 -88.1914
c0 -64.8145 61.627 -85.0029 71.1904 -88.1904h96.6914v-21.251h-99.8789c-1.06152 0 -88.1914 23.376 -88.1914 108.379c0 64.8145 49.9395 103.066 83.9414 109.441c6.37598 1.0625 12.75 7.4375 13.8135 15.9385c6.375 34.001 22.3135 77.5654 64.8154 97.7539
c37.1895 18.0625 80.7539 19.126 116.88 5.3125c26.5645 -10.625 47.8154 -28.6885 59.5039 -53.127c16.999 0 52.0645 -1.06348 68.002 -25.501c11.6875 -20.1885 13.8135 -40.377 12.75 -52.0654c14.875 -2.12402 42.502 -8.5 60.5654 -29.751zM235.431 383.331
c-3.1875 0 -69.0654 -9.5625 -66.9404 -78.6279l-21.25 -1.0625c-3.18848 70.127 54.1904 96.6914 86.0654 100.941zM473.441 -22.5605v-0.000976562h31.8779v-21.251h-31.876c-4.25098 -11.6885 -15.9395 -20.1885 -28.6895 -20.1885
c-12.751 0 -24.4395 8.5 -28.6885 20.1885h-28.6895c-4.25098 -11.6885 -15.9395 -20.1885 -28.6895 -20.1885c-12.751 0 -24.4395 8.5 -28.6885 20.1885h-21.251c-11.6885 0 -21.252 4.25098 -28.6895 11.6885c-13.8125 13.8125 -12.75 36.126 -12.75 38.251v178.508
h-24.4385v-96.6924c0 -15.9375 -7.4375 -47.8145 -40.376 -52.0645c-4.25 0 -10.625 -1.0625 -19.126 -1.0625c-4.25 -11.6885 -14.876 -20.1885 -28.6885 -20.1885c-12.752 0 -24.4395 8.5 -28.6895 20.1885h-43.5645c-4.25 -11.6885 -14.876 -20.1885 -28.6885 -20.1885
c-17.001 0 -30.8145 13.8125 -30.8145 30.8135v3.1875c2.125 15.9385 14.876 27.627 30.8145 27.627c13.8125 0 24.4385 -8.50098 29.751 -21.251h43.5635c4.25098 11.6885 15.9385 20.1885 28.6895 20.1885s24.4395 -7.4375 28.6895 -19.125
c8.5 0 13.8125 1.0625 17.001 1.0625c21.25 3.1875 21.25 27.626 21.25 30.8135v97.7549h-26.5635v21.251h122.19v-21.251h-26.5635v-178.508c-1.06152 -4.25098 0 -17.001 6.37598 -23.377c3.1875 -3.1875 7.43652 -5.3125 13.8125 -5.3125h18.0625
c4.25098 11.6885 14.876 20.1885 28.6895 20.1885c12.751 0 24.4395 -8.5 28.6895 -20.1885h28.6885c4.25098 11.6885 15.9385 20.1885 28.6895 20.1885s24.4385 -7.4375 28.6895 -21.25zM63.2988 45.4414v1.06348c0 4.25 -4.25 8.5 -9.5625 8.5
c-4.25 0 -8.5 -4.25098 -9.5625 -8.5v-1.06348c0 -4.25098 4.25 -8.5 9.5625 -8.5s9.5625 3.1875 9.5625 8.5zM155.74 35.8789c5.3125 0 9.56348 4.25 9.56348 9.56348c0 5.3125 -4.25098 9.5625 -9.56348 9.5625s-9.5625 -4.25 -9.5625 -9.5625
c0 -5.31348 4.25 -9.56348 9.5625 -9.56348zM358.686 -40.623c5.31348 0 9.5625 4.24805 9.5625 9.56152c0 5.31445 -4.25 9.56348 -9.5625 9.56348c-5.31348 0 -9.56348 -4.25098 -9.56348 -9.56348s4.25098 -9.56152 9.56348 -9.56152zM444.752 -40.623
c5.3125 0 9.5625 4.24805 9.5625 9.56152c0 5.31445 -4.24902 9.56348 -9.5625 9.56348s-9.56348 -4.25098 -9.56348 -9.56348s4.25098 -9.56152 9.56348 -9.56152z" />
    <glyph glyph-name="uniF112" unicode="&#xf112;" 
d="M364.065 147.41h132.197v-20.9844h-111.213v-92.3281h-113.312v-93.377h-140.59v20.9844h119.606v93.376h113.312v92.3291zM445.902 193.574l66.0977 -57.7051l-65.0488 -64.001l-14.6895 14.6895l48.2637 48.2617l-48.2637 43.0166zM235.017 352
c24.1309 0 44.0645 -19.9346 44.0654 -44.0645v-91.2793c0 -24.1309 -19.9346 -44.0654 -44.0654 -44.0654h-5.24609c-24.1309 0 -44.0654 19.9346 -44.0654 44.0654v91.2783c0 24.1309 19.9346 44.0654 44.0654 44.0654h5.24609zM259.147 216.655h0.000976562v91.2793
c0 12.5908 -10.4912 23.082 -23.0811 23.082h-5.24609c-12.5908 0 -23.082 -10.4922 -23.082 -23.082v-91.2793c0 -12.5908 10.4912 -23.082 23.0811 -23.082h5.24609c12.5898 0 23.0811 10.4912 23.0811 23.082zM122.754 264.917
c7.34375 8.39355 46.1641 49.3125 74.4922 47.2129l-1.0498 -20.9834c-13.6387 1.0498 -40.918 -22.0332 -56.6553 -39.8682l-40.918 -65.0498l-17.8369 11.542zM378.754 342.558l11.542 -17.8359c-23.082 -15.7373 -77.6396 -51.4102 -89.1807 -54.5576h-4.19727
c-13.6396 0 -29.377 14.6875 -35.6719 20.9834l14.6885 14.6885c7.34375 -7.34473 17.8359 -14.6885 20.9834 -14.6885c6.2959 2.09766 47.2139 28.3281 81.8359 51.4102zM182.788 9.18359l-20.3447 5.13184l43.1123 170.901l20.3457 -5.13281zM337.836 153.704
c2.09863 -20.9834 0 -58.7539 0 -60.8525l-20.9834 1.0498s2.09863 38.8184 0 58.7529c-1.04883 14.6885 -11.541 20.9834 -11.541 20.9834l-40.918 24.1309l10.4912 17.8369l40.9189 -24.1309c1.04883 0 19.9346 -11.541 22.0322 -37.7705zM123.804 179.935
l28.3281 -9.44336l-28.3281 -90.2295l-123.804 35.6719l31.4756 94.4277l29.377 -9.44336l3.14844 14.6885l65.0488 -22.0322zM110.164 106.492l15.7383 51.4092l-30.4268 9.44238l6.29395 14.6895l-20.9834 7.34473l-3.14746 -14.6895l-31.4746 10.4922l-18.8857 -54.5576z
M233.967 443.278c25.1807 0 45.1152 -19.9336 45.1143 -44.0654c0 -24.1309 -19.9346 -44.0664 -45.1152 -44.0664c-25.1797 0 -45.1143 19.9355 -45.1143 44.0664s19.9346 44.0654 45.1152 44.0654zM233.967 377.18c13.6396 0 24.1309 10.4922 24.1309 23.083
s-10.4912 23.082 -24.1309 23.082c-13.6387 0 -24.1309 -10.4912 -24.1309 -23.082s10.4922 -23.083 24.1309 -23.083z" />
    <glyph glyph-name="uniF13A" unicode="&#xf13a;" 
d="M182.539 -64v22.2607h140.244v-22.2607h-140.244zM182.539 -13.9131v22.2607h140.244v-22.2607h-140.244zM182.539 36.1748v22.2607h140.244v-22.2607h-140.244zM182.539 86.2607v22.2607h140.244v-22.2607h-140.244zM182.539 136.348v22.2607h140.244v-22.2607h-140.244
zM182.539 186.436v22.2607h140.244v-22.2607h-140.244zM182.539 236.521v22.2607h140.244v-22.2607h-140.244zM182.539 286.609v22.2598h140.244v-22.2598h-140.244zM182.539 336.696v22.2607h140.244v-22.2607h-140.244zM182.539 381.218v22.2598h140.244v-22.2598
h-140.244zM182.539 425.739v22.2607h140.244v-22.2607h-140.244zM0 -64v22.2607h144.695v-22.2607h-144.695zM0 -22.8174v22.2607h144.695v-22.2607h-144.695zM0 19.4785v22.2598h144.695v-22.2598h-144.695zM0 60.6611v22.2607h144.695v-22.2607h-144.695zM0 102.957
v22.2607h144.695v-22.2607h-144.695zM0 144.139v22.2607h144.695v-22.2607h-144.695zM0 186.436v22.2607h144.695v-22.2607h-144.695zM0 227.618v22.2607h144.695v-22.2607h-144.695zM0 269.913v22.2607h144.695v-22.2607h-144.695zM367.305 -64v22.2607h144.695v-22.2607
h-144.695zM367.305 -22.8174v22.2607h144.695v-22.2607h-144.695zM367.305 19.4785v22.2598h144.695v-22.2598h-144.695zM367.305 60.6611v22.2607h144.695v-22.2607h-144.695zM367.305 102.957v22.2607h144.695v-22.2607h-144.695zM367.305 144.139v22.2607h144.695
v-22.2607h-144.695zM367.305 186.436v22.2607h144.695v-22.2607h-144.695zM367.305 227.618v22.2607h144.695v-22.2607h-144.695zM367.305 269.913v22.2607h144.695v-22.2607h-144.695z" />
    <glyph glyph-name="uniF125" unicode="&#xf125;" 
d="M313.601 96l66.1328 -138.667h-247.467l65.0674 138.667h116.267zM211.2 74.667l-44.7998 -96h179.2l-45.8672 96h-88.5332zM106.667 -42.667v21.333h298.667v-21.333h-298.667zM0 426.667h512v-352h-512v352zM490.667 96v309.333h-469.334v-309.333h469.334z
M169.601 369.067l182.399 -118.401l-182.399 -118.399v236.801zM190.934 329.601v-158.935l121.6 78.9346z" />
    <glyph glyph-name="uniF191" unicode="&#xf191;" 
d="M362.667 448c82.1328 0 149.333 -67.2002 149.333 -149.333c0 -77.8662 -58.667 -141.866 -135.467 -148.267c-4.26562 -1.06738 -9.60059 -1.06738 -13.8662 -1.06738c-82.1328 0 -149.334 67.2012 -149.334 149.334s67.2012 149.333 149.334 149.333zM374.4 170.666
c66.1328 6.40039 116.267 60.8008 116.267 128.001c0 70.4004 -57.5996 128 -128 128s-128.001 -57.5996 -128.001 -128s57.6006 -128.001 128.001 -128.001h11.7334zM489.753 -57.0625l-83.9404 223.721l19.9756 7.49414l83.9395 -223.721zM459.733 271.999h-26.667
c-1.06641 -1.06543 -1.06641 -3.19922 -2.13379 -4.26562l18.1328 -18.1328l-37.333 -37.334l-18.1328 18.1338c-1.06641 -1.06641 -3.2002 -1.06641 -4.2666 -2.13281v-25.6006h-52.2666v26.666c-1.06641 1.06641 -3.2002 1.06641 -4.2666 2.13379l-18.1328 -18.1348
l-37.333 37.334l18.1328 18.1338c-1.06738 1.06641 -1.06738 3.19922 -2.13379 4.2666h-26.666v52.2666h26.666c1.06641 1.06641 1.06641 3.19922 2.13379 4.2666l-18.1328 18.1338l37.335 37.334l18.1328 -18.1348c1.06543 1.06641 3.19824 1.06641 4.26562 2.13379
v25.5996h52.2666v-26.667c1.06641 -1.06641 3.2002 -1.06641 4.2666 -2.13281l18.1328 18.1338l37.334 -37.334l-18.1328 -18.1338c1.06543 -1.06641 1.06543 -3.19922 2.13281 -4.2666h26.666v-52.2666zM419.2 249.601l-14.9316 14.9336l4.2666 7.46582
c3.2002 4.26758 4.26758 9.60059 6.40039 14.9346l2.13281 8.5332h21.333v9.59961h-21.333l-2.13281 8.5332c-1.06738 5.33398 -3.2002 9.60059 -6.40039 14.9336l-4.2666 7.4668l14.9346 14.9336l-6.40039 6.40039l-14.9346 -14.9336l-7.46582 4.26562
c-4.26758 3.2002 -9.60059 4.26758 -14.9336 6.40039l-8.53418 2.13281v21.333h-9.59961v-21.334l-8.53418 -2.13281c-5.33301 -1.06738 -9.60059 -3.2002 -14.9336 -6.40039l-7.46582 -4.2666l-14.9346 14.9346l-6.39941 -6.40039l14.9307 -14.9326l-4.26562 -7.4668
c-3.2002 -4.26758 -4.26758 -9.60059 -6.40039 -14.9336l-2.13281 -8.5332h-21.333v-9.59961h21.333l2.13281 -8.5332c1.06738 -5.33398 3.2002 -9.60059 6.40039 -14.9346l4.26562 -7.46582l-14.9336 -14.9336l6.40039 -6.40039l14.9336 14.9336l7.4668 -4.2666
c4.26758 -3.2002 9.60059 -4.2666 14.9336 -6.40039l8.5332 -2.13281v-21.333h9.60059v21.333l8.5332 2.13281c5.33496 1.06738 9.60059 3.2002 14.9346 6.40039l7.46582 4.2666l14.9336 -14.9336zM277.334 40.5332h-37.333
c-1.06738 -4.26758 -3.2002 -9.60059 -5.33301 -13.8672l26.666 -26.666l-48.001 -48l-26.666 26.666c-4.26562 -2.13281 -8.5332 -4.2666 -13.8662 -5.33301v-37.334h-68.2666v37.334c-4.26758 1.06641 -9.60059 3.2002 -13.8662 5.33301l-26.667 -26.666l-48 48
l26.666 26.666c-2.13281 4.2666 -4.26562 8.53418 -5.33301 13.8672h-37.334v68.2666h37.333c1.06641 4.2666 3.2002 9.59961 5.33301 13.8662l-26.666 26.666l48 48.001l26.666 -26.667c4.26758 2.13379 8.53418 4.2666 13.8672 5.33398v37.334h68.2676v-37.334
c4.2666 -1.06738 9.60059 -3.2002 13.8662 -5.33398l26.665 26.667l48.001 -48.001l-26.667 -26.666c2.13379 -4.26758 4.2666 -8.5332 5.33398 -13.8662h37.334v-68.2666zM232.533 1.06641l-23.4658 23.4658l4.26562 7.4668c4.2666 7.4668 7.4668 14.9336 9.59961 23.4668
l2.13379 8.5332h33.0664v25.6006h-33.0664l-2.13379 8.5332c-2.13281 8.5332 -5.33301 16.001 -9.59961 23.4668l-4.26562 7.4668l23.4658 23.4658l-18.1328 18.1338l-23.4668 -23.4668l-7.4668 4.2666c-7.4668 4.2666 -14.9336 7.4668 -23.4668 9.60059l-8.5332 2.13281
v28.7988h-25.6006v-33.0664l-8.5332 -2.13281c-8.53418 -2.13281 -16.001 -5.33301 -23.4678 -9.59961l-7.46582 -4.2666l-23.4688 23.4678l-18.1338 -18.1338l23.4668 -23.4678l-4.26562 -7.46582c-4.2666 -7.46777 -7.4668 -14.9336 -9.59961 -23.4678l-2.13281 -8.5332
h-33.0664v-25.5986h33.0674l2.13281 -8.53418c2.13281 -8.5332 5.33301 -16 9.59961 -23.4668l4.2666 -7.4668l-23.4678 -23.4668l18.1338 -18.1338l23.4678 23.4668l7.46582 -4.26562c7.46777 -4.2666 14.9336 -7.4668 23.4678 -9.59961l8.5332 -2.13281v-28.7998h25.6006
v33.0664l8.5332 2.13379c8.5332 2.13281 16.001 5.33301 23.4668 9.59863l7.4668 4.2666l23.4668 -23.4668zM138.667 132.267c31.999 0 57.5996 -25.6016 57.5996 -57.6006c0 -32 -25.5996 -57.6006 -57.5996 -57.6006c-32.001 0 -57.5996 25.6016 -57.5996 57.6016
c0 31.999 25.5996 57.5996 57.5996 57.5996zM138.667 38.4004c20.2656 0 36.2666 15.999 36.2666 36.2666c0 20.2666 -16 36.2666 -36.2666 36.2666c-20.2676 0 -36.2666 -16 -36.2666 -36.2666c0 -20.2676 15.999 -36.2666 36.2666 -36.2666z" />
    <glyph glyph-name="uniF180" unicode="&#xf180;" 
d="M428.912 131.368l21.332 -6.73828c-26.9473 -93.1924 -107.789 -157.192 -200.981 -157.192c-90.9473 0 -171.79 61.7539 -199.859 154.947l21.334 6.7373c25.8242 -83.0879 97.6846 -139.228 178.526 -139.228c83.0869 0 154.947 57.2637 179.648 141.474z
M249.264 416.562c83.0869 0 158.314 -52.7715 191.999 -133.613l-20.21 -8.98242c-30.3154 72.9824 -97.6836 120.14 -171.789 120.14c-71.8594 0 -135.859 -42.666 -168.421 -111.157l-20.21 8.98242c35.9287 76.3496 108.911 124.631 188.631 124.631zM339.088 144.843
l22.457 -2.24707c-12.3516 -104.42 -57.2646 -175.157 -108.913 -175.157s-94.3164 66.2461 -107.789 165.053l22.4561 3.36914c11.2275 -84.2109 47.1572 -144.842 85.333 -144.842c40.4209 0 76.3516 64 86.4561 153.824zM252.631 416.562
c46.0361 0 86.457 -55.0176 103.298 -139.228l-22.4561 -4.49023c-14.5967 72.9824 -47.1582 121.262 -80.8418 121.262c-34.8066 0 -67.3682 -49.4033 -81.9648 -123.509l-22.4561 4.49121c16.8418 86.4561 57.2627 141.474 104.421 141.474zM96.5615 326.736h311.017
v-22.4561h-322.244zM76.3506 76.3516v22.4561h339.088v-22.4561h-339.088zM123.508 240.28h16.8438l-30.3154 -75.2275h-15.7197l-14.5967 35.9307c-3.36914 7.86035 -5.61426 15.7197 -8.98242 24.7021c-2.24707 -8.98242 -5.61426 -16.8428 -8.98242 -24.7021
l-15.7197 -35.9307h-16.8418l-29.1934 75.2275h19.084l12.3506 -38.1748c2.24707 -7.85938 5.61426 -15.7197 6.7373 -23.5791h1.12305c2.24707 7.85938 5.61426 15.7197 8.9834 23.5791l15.7197 38.1748h14.5957l14.5967 -37.0518
c3.36914 -8.98242 6.7373 -16.8428 8.98242 -24.7021h1.12305c1.12402 7.86035 4.49219 15.7197 6.7373 24.7021zM308.771 240.28h16.8438l-30.3164 -75.2275h-16.8418l-14.5957 35.9307c-3.36914 7.86035 -5.61426 15.7197 -8.98242 24.7021
c-2.24609 -8.98242 -5.61426 -16.8428 -8.9834 -24.7021l-15.7197 -35.9307h-15.7197l-29.1924 75.2275h19.0869l12.3506 -38.1748c2.24609 -7.85938 5.61328 -15.7197 6.73633 -23.5791h1.12402c2.24512 7.85938 5.61328 15.7197 8.98242 23.5791l15.7188 38.1748h14.5957
l14.5967 -37.0518c3.36914 -8.98242 6.7373 -16.8428 8.98242 -24.7021h1.12305c1.12402 7.86035 4.49219 15.7197 6.7373 24.7021zM495.158 240.28h16.8398l-31.4385 -75.2275h-15.7197l-14.5967 35.9307c-3.36816 7.86035 -5.61426 15.7197 -8.98242 24.7021
c-2.24512 -8.98242 -5.61426 -16.8428 -8.98242 -24.7021l-15.7197 -35.9307h-14.5967l-29.1934 75.2275h17.9658l12.3506 -38.1748c2.24512 -7.85938 5.61426 -15.7197 6.7373 -23.5791h1.12305c2.24609 7.85938 5.61426 15.7197 8.98242 23.5791l15.7197 38.1748h14.5967
l14.5967 -37.0518c3.36816 -8.98242 6.7373 -16.8428 8.98242 -24.7021h1.12305c1.12402 7.86035 4.49219 15.7197 6.7373 24.7021z" />
    <glyph glyph-name="uniF16B" unicode="&#xf16b;" 
d="M384.001 221.866c70.3994 0 127.999 -57.5986 127.999 -127.999c0 -70.4014 -57.5996 -128.001 -128 -128.001h-288c-53.333 0 -96 42.666 -96 96c0 46.9336 35.1992 87.4668 81.0684 94.9336c18.1328 64 75.7324 107.733 142.933 107.733
c43.7334 0 84.2656 -19.2002 113.066 -52.2666c14.9336 6.39941 30.9336 9.59961 46.9336 9.59961zM384 -13.8672c58.667 0 106.666 47.999 106.666 106.666s-48.001 106.667 -106.667 106.667c-16.001 0 -30.9336 -3.2002 -45.8672 -10.667l-7.4668 -3.2002
l-5.33301 6.40039c-24.5332 33.0674 -61.8662 51.2002 -101.333 51.2002c-59.7334 0 -110.934 -40.5332 -124.8 -99.2002l-2.13379 -7.46582l-7.46582 -1.06738c-38.4004 -3.2002 -68.2666 -36.2666 -68.2666 -74.667c0 -41.5996 33.0664 -74.666 74.667 -74.666h288z
M384.001 40.5332v362.667h21.333v-362.667h-21.333zM394.667 418.134l60.8008 -60.7998l-14.9346 -14.9346l-45.8662 45.8662l-45.8672 -45.8662l-14.9326 14.9346zM245.334 40.5332v330.667h21.333v-330.667h-21.333zM256.001 386.133l60.7998 -60.7998l-14.9336 -14.9326
l-45.8662 45.8662l-45.8682 -45.8662l-14.9326 14.9326zM106.667 40.5332v288h21.333v-288h-21.333zM117.334 354.134l60.7998 -60.8008l-14.9336 -14.9336l-45.8662 45.8672l-45.8672 -45.8672l-14.9326 14.9336z" />
    <glyph glyph-name="uniF108" unicode="&#xf108;" 
d="M261.334 448c78.9326 0 142.933 -71.4678 142.933 -158.934c-1.06543 -87.4668 -65.0664 -157.867 -142.933 -157.867c-78.9326 0 -142.934 71.4678 -142.934 158.934c0 20.2676 3.2002 40.5332 10.667 58.667c21.333 59.7334 73.5996 99.2002 132.267 99.2002z
M262.399 151.467c67.2012 0 121.602 61.8672 121.602 137.6s-56.5342 137.6 -122.667 137.6c-49.0674 0 -93.8672 -33.0664 -112.001 -85.333c-6.40039 -16 -8.5332 -34.1338 -8.5332 -52.2666c0 -75.7324 54.3994 -137.6 121.6 -137.6zM384 331.733l9.60059 -19.1992
c-11.7344 -7.4668 -25.6006 -11.7334 -38.4004 -11.7334c-8.5332 0 -16 1.06641 -24.5332 4.2666c-22.4004 7.4668 -39.4658 25.5996 -49.0664 39.4668c-7.46582 -11.7324 -17.0664 -21.333 -29.8662 -26.666c-48 -21.333 -116.267 9.59863 -119.467 10.666l8.5332 19.2002
c1.06641 0 62.9336 -27.7334 101.333 -10.667c13.8672 6.40039 22.4004 17.0674 27.7334 33.0664l7.4668 26.667l11.7324 -24.5342s17.0664 -36.2656 48 -45.8662c14.9336 -5.33398 30.9336 -3.2002 46.9336 5.33301zM457.601 85.333
c19.2002 -5.33301 54.3994 -28.7988 54.3994 -76.8008v-72.5332h-512v87.4668c0 3.2002 2.13281 36.2676 71.4678 57.6016c50.1328 14.9326 95.999 31.999 113.066 38.3994v42.667h21.333v-56.5332l-6.40039 -2.13379c-1.06738 0 -58.667 -22.3994 -121.6 -41.5996
c-53.334 -16.001 -55.4668 -37.334 -55.4668 -37.334l-1.06738 -67.2002h469.335v50.1338c0 43.7324 -37.333 55.4668 -38.3994 56.5322l-139.734 34.1338v53.334l24.5332 10.666l-3.2002 -46.9326zM315.733 114.134l11.7334 -19.2012l-69.333 -81.0654l-71.4668 91.7334
l17.0674 12.7988l55.4668 -70.4004z" />
    <glyph glyph-name="uniF135" unicode="&#xf135;" 
d="M69.1318 145.013c21.6025 0 39.9658 -18.3633 39.9658 -42.127c0 -23.7627 -17.2822 -42.126 -39.9658 -42.126s-39.9668 18.3633 -39.9668 42.126c0 23.7637 18.3633 42.127 39.9668 42.127zM69.1318 81.2832c10.8008 0 18.3623 8.64062 18.3633 20.5234
c0 11.8818 -8.64258 20.5234 -18.3633 20.5234c-10.8027 0 -18.3643 -8.6416 -18.3643 -20.5234c0 -11.8828 8.6416 -20.5234 18.3643 -20.5234zM69.1299 60.7598c33.4854 0 61.5713 -29.1641 61.5703 -63.7305v-49.6865h-21.6035v49.6865
c0 23.7646 -18.3633 42.127 -39.9668 42.127c-21.6025 0 -39.9658 -19.4434 -39.9658 -42.127v-49.6865h-21.6035v49.6865c0 35.6455 28.085 63.7305 61.5693 63.7305zM432.067 134.211c21.6035 0 39.9658 -18.3633 39.9658 -42.127
c0 -23.7627 -18.3633 -42.126 -39.9658 -42.126c-22.6836 0 -39.9668 18.3633 -39.9668 42.126c0 23.7637 18.3633 42.127 39.9668 42.127zM432.067 70.4814c10.8008 0 18.3633 8.6416 18.3623 20.5234c0 11.8818 -8.6416 20.5234 -18.3623 20.5234
c-10.8018 0 -18.3623 -8.6416 -18.3623 -20.5234s8.63965 -20.5234 18.3623 -20.5234zM432.067 49.958c33.4844 0 61.5693 -29.1641 61.5693 -63.7295v-49.6875h-21.6035v49.6875c0 23.7637 -18.3623 42.126 -39.9658 42.126c-21.6045 0 -39.9668 -19.4424 -39.9668 -42.126
v-49.6875h-21.6025v49.6875c0 35.6445 28.084 63.7295 61.5693 63.7295zM450.431 447.46c21.6025 0 39.9668 -18.3633 39.9668 -42.126c0 -23.7637 -17.2832 -42.127 -39.9668 -42.127s-39.9668 18.3633 -39.9668 42.127c0 23.7627 18.3633 42.126 39.9668 42.126z
M450.431 383.73c10.8018 0 18.3623 8.6416 18.3623 20.5234c0 11.8828 -7.56055 20.5234 -18.3623 20.5234s-18.3623 -8.64062 -18.3623 -20.5234c0 -11.8818 8.6416 -20.5234 18.3623 -20.5234zM450.431 363.207c33.4854 0 61.5693 -29.165 61.5693 -63.7295v-49.6875
h-21.6025v49.6875c0 23.7646 -18.3633 42.127 -39.9668 42.127c-21.6045 0 -39.9668 -19.4434 -39.9668 -42.127v-49.6875h-21.6025v49.6875c0 35.6455 28.084 63.7295 61.5693 63.7295zM61.5693 446.38c21.6035 0 39.9668 -18.3633 39.9668 -42.127
c0 -23.7627 -18.3633 -42.126 -39.9668 -42.126c-22.6836 0 -39.9668 18.3633 -39.9668 42.126c0 23.7637 18.3643 42.127 39.9668 42.127zM61.5693 383.73c10.8018 0 18.3633 8.6416 18.3633 20.5234c0 11.8828 -8.64062 20.5234 -18.3633 20.5234
c-10.8027 0 -18.3633 -8.64062 -18.3633 -20.5234c0 -11.8818 8.6416 -20.5234 18.3633 -20.5234zM61.5693 363.207c33.4854 0 61.5693 -29.165 61.5693 -63.7305v-50.7686h-21.6025v50.7686c0 23.7637 -18.3633 42.126 -39.9668 42.126
c-21.6025 0 -39.9668 -19.4424 -39.9668 -42.126v-49.6875h-21.6025v49.6875c0 35.6465 28.084 63.7305 61.5693 63.7305zM250.6 317.84c21.6025 0 39.9658 -18.3633 39.9658 -42.127c0 -23.7627 -18.3633 -42.126 -39.9658 -42.126
c-22.6836 0 -39.9668 18.3633 -39.9668 42.126c0 23.7637 18.3633 42.127 39.9668 42.127zM250.6 254.11c10.8008 0 18.3623 8.6416 18.3623 20.5234s-8.64062 20.5234 -18.3623 20.5234c-10.8018 0 -18.3623 -8.6416 -18.3623 -20.5234s8.64062 -20.5234 18.3623 -20.5234z
M250.6 233.587c33.4844 0 61.5693 -29.165 61.5693 -63.7295v-49.6875h-21.6035v49.6875c0 23.7637 -18.3633 42.126 -39.9658 42.126c-21.6035 0 -39.9668 -19.4424 -39.9668 -42.126v-49.6875h-21.6035v49.6875c0 35.6445 28.085 63.7295 61.5703 63.7295z
M323.982 191.893l-12.7422 17.4482l60.1943 43.96l12.7422 -17.4473zM180.046 201.503l-56.4697 41.7188l12.8369 17.376l56.4697 -41.7188zM371.35 60.5244l-54.543 40.6943l12.9189 17.3154l54.543 -40.6943zM125.136 66.6777l-11.7734 18.1152l57.9688 37.6787
l11.7744 -18.1152z" />
    <glyph glyph-name="uniF14D" unicode="&#xf14d;" 
d="M249.052 65.8711l262.948 304.634v-423.281h-1.06934h-484.209l165.679 174.229zM489.553 -31.3984v344.184l-240.5 -277.912l-56.6514 56.6514l-116.51 -122.923h413.661zM409.387 -43.1562v291.808h21.377v-291.808h-21.377zM323.874 -42.0869v191.331h21.3779
v-191.331h-21.3779zM237.295 -44.2246v94.0625h21.377v-94.0625h-21.377zM151.782 -43.1553v118.646h21.3779v-118.646h-21.3779zM491.69 433.57l16.0332 -13.8955l-264.017 -308.91l-53.4443 51.3057l-174.229 -191.331l-16.0332 13.8955l189.194 207.366l53.4443 -50.2383
zM457.485 436.776h53.4453v-53.4443h-21.3779v32.0664h-32.0674v21.3779z" />
    <glyph glyph-name="uniF12A" unicode="&#xf12a;" 
d="M481.259 390.228c6.36035 -13.7812 9.54102 -27.5615 9.54102 -42.4014c0 -55.1221 -46.6416 -99.6445 -103.884 -99.6445c-13.7812 0 -26.502 2.12012 -39.2217 7.4209l-143.106 -147.346c3.18066 -9.54102 5.30078 -20.1416 5.30078 -30.7412
c1.06055 -56.1816 -44.5225 -100.704 -101.764 -100.704c-15.9004 0 -31.8008 3.18066 -46.6426 10.6006l-13.7803 6.36035l56.1826 54.0625l-25.4414 24.3799l-56.1826 -54.0615l-6.36035 12.7207c-7.4209 13.7803 -11.6611 29.6807 -11.6611 45.5811
c0 55.1221 46.6426 99.6436 103.884 99.6436c12.7217 0 24.3809 -2.12012 36.042 -6.36035l145.225 149.465c-3.18066 9.54004 -4.24023 18.0215 -4.24023 27.5615c0 55.1221 46.6416 99.6445 103.884 99.6445c15.9004 0 30.7412 -3.17969 44.5225 -9.54004
l13.7803 -6.36035l-57.2422 -54.0625l28.6221 -27.5605l56.1826 54.0615zM386.915 268.323c45.582 0 82.6826 34.9814 82.6836 78.4434c0 6.36035 -1.05859 12.7217 -2.11914 19.0811l-48.7617 -46.6416l-59.3633 57.2412l48.7617 46.6426
c-6.36035 2.11914 -13.7803 2.11914 -20.1416 2.11914c-45.5811 0 -82.6826 -34.9814 -82.6826 -78.4434c0 -8.47949 2.12012 -18.0205 5.2998 -26.501l2.12012 -6.36035l-165.366 -168.547l-6.36133 3.18066c-10.5996 5.2998 -22.2607 7.41992 -34.9805 7.41992
c-45.582 0 -82.6836 -34.9814 -82.6836 -78.4424c0 -7.41992 1.06055 -14.8408 3.18066 -22.2607l49.8213 47.7012l56.1826 -54.0625l-47.7021 -47.7021c7.41992 -2.12109 14.8418 -3.17969 22.2617 -3.17969c45.5811 0 82.6826 34.9814 82.6826 78.4434
c0 10.6006 -2.12109 20.1406 -6.36035 29.6807l-3.18066 6.36035l163.246 167.488l6.36035 -3.18066c11.6611 -5.2998 24.3818 -8.48047 37.1025 -8.48047zM495.039 30.874c10.6006 -10.6006 16.9609 -24.3809 16.9609 -38.1631
c0 -14.8398 -6.36035 -28.6211 -16.9609 -38.1611c-9.54102 -11.6602 -24.3818 -16.9609 -39.2217 -16.9609s-28.6201 5.30078 -40.2812 15.9004l-139.925 133.566c-3.18066 3.17969 -5.30078 7.4209 -5.30078 11.6602c0 4.24121 2.12012 8.48047 5.30078 11.6611
l56.1826 54.0625c6.35938 6.36035 16.959 6.36035 23.3203 0zM480.199 -31.6689c6.35938 6.36133 10.6006 14.8408 10.5996 23.3193c0 8.48047 -3.18066 16.9609 -10.6006 23.3223l-136.745 130.385l-48.7617 -46.6416l135.686 -130.385
c13.7812 -12.7197 36.042 -13.7803 49.8223 0zM302.608 125.423l-46.9854 44.4307l14.5684 15.4053l46.9844 -44.4307zM201.368 219.937l-101.135 96.6846l14.6494 15.3223l101.134 -96.6846zM46.6416 426.269l95.4043 -87.9834l-47.7021 -44.5215l-94.3438 89.0439z
M30.7412 382.808l63.6025 -59.3623l16.9609 14.8408l-64.6631 59.3623z" />
    <glyph glyph-name="uniF1BC" unicode="&#xf1bc;" 
d="M160.669 448c88.9043 0 160.669 -71.7656 160.669 -160.669c0 -88.9043 -71.7646 -160.669 -160.669 -160.669c-88.9033 0 -160.669 71.7646 -160.669 160.669c0 88.9033 71.7656 160.669 160.669 160.669zM160.669 148.084c77.1221 0 139.247 62.126 139.247 139.247
s-62.126 139.247 -139.247 139.247s-139.247 -62.126 -139.247 -139.247s62.126 -139.247 139.247 -139.247zM333.625 100.915l-72.8672 74.0723l15.2734 15.0244l72.8662 -74.0723zM502.36 -7.23047c12.8535 -12.8535 12.8535 -34.2754 -0.000976562 -47.1299
c-6.42578 -6.42578 -14.9961 -9.63965 -23.5645 -9.63965s-17.1367 3.21289 -23.5645 9.63965l-145.674 145.674l47.1299 47.1299zM486.294 -38.293c4.28418 4.28418 4.28418 11.7822 0 17.1377l-129.607 129.607l-17.1387 -17.1387l129.607 -129.606
c4.28418 -4.2832 11.7832 -4.2832 17.1387 0zM46.0576 289.473c0 63.1963 51.415 115.682 115.682 115.682v-21.4219c-52.4844 0 -94.2588 -42.8457 -94.2588 -94.2598h-21.4229zM66.4102 290.543c0 -51.4131 41.7734 -94.2588 94.2588 -94.2588v-21.4229
c-63.1963 0 -115.682 51.4141 -115.682 115.682h21.4229zM254.93 290.543h21.4219c0 -64.2666 -51.4131 -115.682 -115.682 -115.682v21.4229c51.4141 0 94.2598 41.7734 94.2598 94.2588z" />
    <glyph glyph-name="uniF121" unicode="&#xf121;" 
d="M218.667 448c100.267 0 206.933 -25.6006 206.933 -73.5996s-106.667 -73.5996 -206.933 -73.5996c-100.267 0 -206.934 25.5996 -206.934 73.5996c0 47.999 106.666 73.5996 206.934 73.5996zM218.667 322.133c115.2 0 185.6 30.9336 185.6 52.2666
s-70.4004 52.2666 -185.6 52.2666c-115.2 0 -185.601 -29.8662 -185.601 -52.2666s70.4004 -52.2666 185.601 -52.2666zM11.7334 39.4668v334.934h21.333v-334.934h-21.333zM404.267 113.066v261.334h21.333v-261.334h-21.333zM404.267 253.866h21.333
c0 -43.7324 -104.533 -66.1328 -206.933 -66.1328c-102.4 0 -206.934 22.4004 -206.934 66.1328h21.333c0 -15.999 64 -44.7998 185.601 -44.7998c121.6 0 185.6 29.8662 185.6 44.7998zM358.4 108.8l2.13281 -21.333c-23.4668 -2.13379 -117.333 -7.4668 -141.866 -7.4668
c-102.4 0 -206.934 22.4004 -206.934 66.1328h21.333c0 -15.999 64 -44.7998 185.601 -44.7998c24.5332 0 117.333 4.2666 139.733 7.4668zM328.534 2.13281l2.13281 -21.333c-24.5332 -3.2002 -83.2002 -7.46582 -110.934 -7.46582c-103.467 0 -208 22.4004 -208 66.1328
h21.333c0 -15.999 64 -44.7998 186.667 -44.7998c27.7334 0 84.2676 4.26562 108.801 7.46582zM406.399 123.733c52.2666 0 93.8672 -41.6006 93.8672 -93.8672s-41.6006 -93.8662 -93.8672 -93.8662s-93.8662 41.5996 -93.8662 93.8662s41.5996 93.8672 93.8662 93.8672z
M406.399 -42.667c39.4678 0 72.5342 32.001 72.5342 72.5332c0 40.5342 -33.0664 72.5342 -72.5342 72.5342c-39.4668 0 -72.5332 -32.001 -72.5332 -72.5342s33.0664 -72.5332 72.5332 -72.5332zM370.133 16v21.333h73.5996v-21.333h-73.5996zM395.733 -13.8672v72.5332
h21.333v-72.5332h-21.333z" />
    <glyph glyph-name="uniF152" unicode="&#xf152;" 
d="M0 448h169.256v-507.768h-169.256v507.768zM148.099 -38.6113v465.455h-126.942v-465.455h126.942zM10.5781 46.0166v21.1562h148.1v-21.1562h-148.1zM12.8252 -7.7959l-0.186523 21.1572l145.989 1.28516l0.185547 -21.1582zM84.6279 172.959
c23.2734 0 42.3145 -19.041 42.3145 -42.3145s-19.041 -42.3145 -42.3145 -42.3145s-42.3145 19.041 -42.3145 42.3145s19.041 42.3145 42.3145 42.3145zM84.6279 109.487c11.6367 0 21.1572 9.52148 21.1562 21.1572c0 11.6367 -9.51953 21.1562 -21.1562 21.1562
s-21.1572 -9.51953 -21.1572 -21.1562s9.52051 -21.1572 21.1572 -21.1572zM42.3145 405.686h84.6279v-211.57h-84.6279v211.57zM105.785 215.273v169.256h-42.3145v-169.256h42.3145zM74.0498 358.082v37.0254h21.1562v-37.0254h-21.1562zM295.141 346.446l216.86 -336.396
l-114.248 -74.0498l-216.859 336.396zM209.455 266.05l194.644 -300.431l79.3389 50.7764l-194.645 300.431zM361.197 10.6553l-11.4863 17.7676l96.834 62.5996l11.4854 -17.7676zM385.364 -23.835l-11.6475 17.6592l95.3564 62.9014l11.6484 -17.6592zM401.983 117.95
c5.28906 -7.40527 6.34766 -16.9258 5.28906 -26.4453c-2.11523 -9.52148 -7.4043 -16.9258 -15.8672 -22.2148c-5.28906 -3.17383 -11.6367 -5.28906 -19.041 -5.28906c-11.6367 0 -23.2725 5.28906 -29.6201 15.8672c-10.5781 15.8672 -6.34766 38.082 10.5781 48.6611
c15.8682 10.5781 38.083 6.34668 48.6611 -10.5791zM386.116 96.7939c1.05762 3.17285 0 7.4043 -2.11719 10.5771c-2.11523 4.23242 -6.34668 6.34766 -11.6357 6.34766c-2.11621 0 -5.29004 -1.05762 -7.40527 -2.11523
c-6.3457 -4.23145 -8.46289 -12.6953 -4.23047 -19.042c4.23047 -6.3457 12.6934 -8.46191 19.041 -4.23047c3.17383 2.11621 5.28906 5.28906 6.34766 8.46289zM284.562 299.901l92.0332 -141.752l-59.2402 -38.082l-92.0322 141.751zM254.941 256.529l68.7607 -106.843
l23.2725 15.8672l-68.7607 106.843zM267.646 243.113l-15.5186 23.9824l17.7637 11.4951l15.5186 -23.9824z" />
    <glyph glyph-name="uniF13C" unicode="&#xf13c;" 
d="M74.667 448h362.666v-512h-362.666v512zM416 -42.667v469.334h-320v-469.334h320zM362.667 306.133h21.335v-220.799h-185.601c-38.4004 0 -70.4004 29.8672 -70.4004 66.1338v189.866l21.333 -8.5332v-181.334c0 -24.5332 22.4004 -44.8008 49.0664 -44.8008h164.267
v199.467zM384.001 295.467h-0.000976562v0h0.000976562zM173.866 384h210.135v-88.5342l-211.2 3.2002c-24.5332 0 -44.8008 19.1992 -44.8008 42.667c0 23.4668 20.2666 42.667 45.8662 42.667zM173.866 320l188.801 -2.13477v44.8008h-188.801
c-13.8662 0 -24.5332 -9.59961 -24.5332 -21.333s10.667 -21.333 24.5332 -21.333zM172.801 330.667v21.333h200.533v-21.333h-200.533zM85.333 21.333v21.333h341.334v-21.333h-341.334zM128 -21.333v21.333h64v-21.333h-64zM320.001 -21.333v21.333h64v-21.333h-64z" />
    <glyph glyph-name="uniF12E" unicode="&#xf12e;" 
d="M34.7646 392.691h442.469v-274.963h-442.469v274.963zM456.164 138.798h0.000976562v232.823h-400.329v-232.823h400.328zM76.9053 350.552h358.189v-190.684h-358.189v190.684zM414.025 180.938v148.543h-316.051v-148.543h316.051zM475.127 125.103l36.873 -133.794
h-512l33.7119 133.794l20.0156 -5.26758l-26.3369 -107.456h457.219l-29.498 106.403zM129.581 306.305h21.0693v-58.9961h-9.48242v50.5674h-11.5869v8.42871zM205.433 298.93c4.21289 -5.2666 6.32129 -12.6416 6.32129 -22.123s-2.1084 -16.8564 -6.32129 -22.124
c-4.21484 -5.2666 -9.48242 -8.42773 -17.9102 -8.42773c-8.42871 0 -13.6963 3.16113 -17.9102 8.42773c-4.21484 5.26758 -6.32129 12.6426 -6.32129 22.124s2.10742 16.8564 6.32129 22.123c4.21387 5.26758 9.48145 8.42871 17.9102 8.42871
s13.6953 -3.16113 17.9102 -8.42871zM198.058 262.058c2.10742 4.21387 3.16113 9.48047 3.16113 15.8018s-1.05371 11.5889 -3.16113 15.8027c-2.10645 4.21387 -6.32129 6.32129 -10.5342 6.32129c-4.21387 0 -8.42773 -2.1084 -10.5352 -6.32129
c-2.10742 -4.21387 -3.16016 -9.48145 -3.16016 -15.8027s1.05371 -11.5889 3.16016 -15.8018c2.10645 -4.21484 6.32129 -6.32129 10.5352 -6.32129c4.21289 0 8.42773 2.10742 10.5342 6.32129zM310.781 261.004h21.0713v-58.9961h-9.48242v50.5684h-11.5889v8.42773z
M387.687 254.683c4.21484 -5.2666 6.32129 -12.6416 6.32129 -22.123c0 -9.48242 -2.10645 -16.8564 -6.32129 -22.124c-4.21289 -5.2666 -9.48047 -8.42773 -17.9082 -8.42773c-8.42871 0 -13.6963 2.10645 -17.9092 8.42773
c-4.21484 5.26758 -6.32129 12.6416 -6.32129 22.124c0 9.48145 2.10645 16.8564 6.32129 22.123c4.21289 5.26758 9.48145 8.42871 17.9092 8.42871c8.42676 0 13.6953 -3.16113 17.9082 -8.42871zM380.312 216.757c2.10645 4.21387 3.16113 9.48145 3.16113 15.8027
c0 6.32031 -1.05469 11.5889 -3.16113 15.8018c-2.10645 4.21484 -6.32129 6.32129 -10.5342 6.32129c-4.21387 0 -8.42871 -2.10645 -10.5352 -6.32129c-2.10645 -4.21289 -3.16113 -9.48047 -3.16113 -15.8018s1.05469 -11.5889 3.16113 -15.8027
s6.32129 -6.32129 10.5352 -6.32129c4.21289 0 8.42773 2.1084 10.5342 6.32129zM215.967 307.358h21.0693v-58.9971h-9.48047v50.5684h-11.5889v8.42871zM292.872 254.683c4.21387 -5.2666 6.32129 -12.6416 6.32129 -22.123
c0 -9.48242 -2.10645 -16.8564 -6.32129 -22.124c-4.21289 -5.2666 -9.48145 -8.42773 -17.9082 -8.42773c-8.42773 0 -13.6963 2.10645 -17.9092 8.42773c-4.21484 5.26758 -6.32129 12.6416 -6.32129 22.124c0 9.48145 2.10645 16.8564 6.32129 22.123
c4.21289 5.26758 9.48047 8.42871 17.9092 8.42871c8.42773 0 13.6953 -3.16113 17.9082 -8.42871zM285.498 216.757c2.10742 4.21387 3.16113 9.48145 3.16113 15.8027c0 6.32031 -1.05371 11.5879 -3.16113 15.8018c-2.10645 4.21484 -6.32129 6.32129 -10.5342 6.32129
c-4.21387 0 -8.42871 -2.10645 -10.5352 -6.32129c-2.10645 -4.21289 -3.16113 -9.48047 -3.16113 -15.8018s1.05469 -11.5889 3.16113 -15.8027s6.32129 -6.32129 10.5352 -6.32129c4.21289 0 8.42773 2.1084 10.5342 6.32129z" />
    <glyph glyph-name="uniF173" unicode="&#xf173;" 
d="M69.333 266.666h373.334v-245.333h-128v21.333h106.667v202.667h-330.668v-202.667h110.934v-21.333h-132.267v245.333zM384.001 400c54.3994 0 98.1338 -43.7334 98.1338 -98.1338c0 -10.667 -2.13281 -21.333 -5.33301 -30.9336
c-5.33398 -17.0674 -24.5332 -42.666 -38.4004 -54.4004l-13.8662 16c10.666 9.60059 27.7334 32.001 31.999 44.8008c2.13281 7.4668 4.2666 16 4.2666 23.4668c0 42.666 -34.1328 76.7998 -76.7998 76.7998c-12.8008 0 -25.6006 -3.19922 -37.334 -9.59961
l-9.59961 -5.33301l-5.33301 9.60059c-10.667 20.2656 -28.8008 37.333 -50.1338 45.8662c-12.8008 5.33301 -25.5996 8.5332 -39.4668 8.5332c-43.7334 0 -82.1328 -27.7334 -96 -68.2666l-3.2002 -9.59961l-9.59961 2.13379
c-6.40039 2.13281 -11.7344 2.13281 -17.0674 2.13281c-36.2666 0 -65.0674 -28.8008 -65.0674 -65.0674c0 -26.666 16 -50.1328 39.4668 -59.7324l-8.5332 -19.2002c-31.999 13.8652 -52.2666 44.7988 -52.2666 78.9326c0 48.001 38.4004 86.4004 86.4004 86.4004
c4.26758 0 8.5332 0 12.8008 -1.06738c19.2002 44.8008 62.9326 74.667 113.066 74.667c17.0674 0 33.0664 -3.2002 48 -9.60059c22.4004 -9.59961 42.668 -26.666 55.4668 -46.9336c12.7998 5.33398 25.6006 8.53418 38.4004 8.53418zM288 42.666h224v-10.666
c0 -53.333 -42.666 -96 -96 -96h-320c-53.333 0 -96 42.666 -96 96v10.666h202.668v-10.666c0 -18.1328 13.8652 -32 32 -32h21.333c18.1328 0 31.999 13.8662 31.999 32v10.666zM416 -42.667c37.334 0 68.2666 27.7334 73.5996 64h-181.334
c-5.33301 -24.5332 -26.666 -42.667 -52.2666 -42.667h-21.333c-25.5996 0 -46.9326 18.1338 -52.2666 42.667h-159.999c5.33301 -36.2666 36.2656 -64 73.5996 -64h320z" />
    <glyph glyph-name="uniF11D" unicode="&#xf11d;" 
d="M320 62.9336h-43.7324c-2.13281 -6.40039 -4.26562 -11.7334 -7.46582 -18.1338l30.9336 -30.9336l-53.334 -53.333l-30.9336 30.9336c-5.33398 -3.19922 -11.7334 -5.33301 -18.1338 -7.4668v-42.667h-75.7334v43.7334
c-6.40039 2.13281 -11.7334 4.26562 -18.1338 7.46582l-30.9336 -30.9326l-53.333 53.333l30.9336 30.9336c-3.19922 5.33301 -5.33398 11.7334 -7.4668 18.1338h-42.667v75.7334h43.7324c2.13281 6.40039 4.26562 11.7334 7.46582 18.1338l-30.9336 30.9336l53.334 53.334
l30.9336 -30.9336c5.33398 3.19922 11.7334 5.33301 18.1338 7.46582v42.667h75.7334v-43.7324c6.40039 -2.13379 11.7334 -4.2666 18.1338 -7.4668l30.9336 30.9336l53.333 -53.333l-30.9336 -30.9336c3.2002 -5.33398 5.33398 -11.7334 7.4668 -18.1338h42.667v-75.7344z
M272 14.9336l-27.7354 27.7344l4.26562 7.4668c5.33301 8.5332 8.5332 18.1328 11.7334 27.7334l2.13379 8.5332h36.2666v33.0664h-38.4004l-2.13281 8.5332c-2.13281 9.59961 -6.40039 19.2002 -11.7334 27.7334l-4.2666 7.4668l27.7334 27.7324l-23.4658 23.4678
l-27.7334 -27.7334l-7.46582 4.26562c-8.53418 5.33398 -18.1348 8.53418 -27.7334 11.7344l-8.53418 2.13281v35.1992h-33.0664v-38.4004l-8.5332 -2.13281c-9.59961 -2.13477 -19.2002 -6.40039 -27.7334 -11.7344l-7.46582 -4.26562l-27.7334 27.7334l-23.4678 -23.4678
l27.7334 -27.7334l-4.26562 -7.46582c-5.33301 -8.5332 -8.5332 -18.1328 -11.7334 -27.7334l-2.13379 -8.5332h-35.1992v-33.0664h38.4023l2.13281 -8.53418c2.13281 -9.59863 6.40039 -19.1992 11.7334 -27.7324l4.2666 -7.4668l-27.7334 -27.7334l23.4668 -23.4668
l27.7334 27.7334l7.46582 -4.2666c8.53418 -5.33301 18.1348 -8.5332 27.7334 -11.7334l8.53418 -2.13281v-35.2002h31.999v38.4004l8.5332 2.13281c9.59961 2.13281 19.2002 6.40039 27.7334 11.7334l7.4668 4.2666l27.7324 -27.7334zM256 442.667
c102.399 0 256 -18.1338 256 -69.333c0 -51.2002 -153.601 -69.334 -256 -69.334s-256 18.1338 -256 69.334c0 51.1992 153.601 69.333 256 69.333zM256 325.333c151.466 0 234.666 32 234.666 48.001c0 16 -83.2002 48 -234.666 48s-234.666 -32 -234.666 -48
c0 -16.001 83.2002 -48.001 234.666 -48.001zM21.334 275.2c0 -4.2666 7.4668 -12.7998 35.1982 -23.4668l-6.39844 -20.2666c-33.0674 11.7334 -50.1338 25.6006 -50.1338 42.667v102.399h21.334v-101.333zM490.666 376.532h21.334v-101.332
c0 -51.1992 -153.601 -69.334 -256 -69.334v21.333c151.466 0 234.666 32.001 234.666 48.001v101.332zM490.666 288.001h21.334v-101.333c0 -51.1992 -153.601 -69.333 -256 -69.333v21.333c151.466 0 234.666 32 234.666 48v101.333zM490.666 200.533h21.334v-101.332
c0 -51.2002 -153.601 -69.334 -256 -69.334v21.333c151.466 0 234.666 32.001 234.666 48.001v101.332zM490.666 112h21.334v-101.332c0 -51.2002 -153.601 -69.334 -256 -69.334v21.333c151.466 0 234.666 32.001 234.666 48.001v101.332z" />
    <glyph glyph-name="uniF1B3" unicode="&#xf1b3;" 
d="M21.5156 13.1621h414.19v-21.5156h-435.706v430.327h21.5156v-408.812zM55.9424 174.536h78.5352v-182.89h-78.5352v182.89zM112.96 13.1621v139.856h-35.501v-139.856h35.501zM159.221 217.568h77.459v-69.9287h-21.5156v48.4121h-34.4268v-21.5156h-21.5166v43.0322z
M215.164 99.2275h21.5156v-107.581h-77.459v124.795h21.5166v-103.279h34.4268v86.0654zM261.423 274.587h61.3223v-80.6865h-21.5166v59.1709h-18.2881v-67.7773h-21.5176v89.293zM318.442 116.441h21.5156v-124.795h-78.5352v118.34h21.5176v-96.8242h35.502v103.279z
M420.645 23.9209h21.5166v-32.2744h-78.5342v75.3076h21.5156v-53.792h35.502v10.7588zM363.627 222.947h78.5342v-155.993h-21.5166v134.477h-35.502v-80.6855h-21.5156v102.202zM497.234 -37.9766l-193.083 182.586l14.7842 15.6348l193.083 -182.586zM233.452 329.453
c62.3975 0 112.961 -48.4121 112.961 -107.582c0 -59.1689 -50.5635 -107.581 -112.961 -107.581c-62.3984 0 -112.962 48.4102 -112.962 107.581c0 59.1699 50.5635 107.582 112.962 107.582zM233.452 135.806c50.5635 0 91.4453 38.7305 91.4443 86.0654
c0 47.3359 -40.8809 86.0645 -91.4443 86.0645s-91.4443 -38.7285 -91.4443 -86.0645s40.8809 -86.0654 91.4443 -86.0654z" />
    <glyph glyph-name="uniF199" unicode="&#xf199;" 
d="M0 -34.9092v452.76h21.1562v-452.76h-21.1562zM512 188.298l-72.9922 -71.9336l1.05859 65.5869h-424.198v21.1572h425.256v72.9912zM461.223 181.95v-13.751l22.2148 21.1562l-21.1562 26.4463zM315.24 318.413c58.1807 -2.11621 63.4697 -111.074 63.4707 -123.769
l-21.1562 -1.05859c-1.05762 26.4453 -10.5781 101.554 -43.3721 103.669c-23.2715 0 -43.3711 -98.3799 -46.5449 -190.413v-1.05859c-1.05859 -6.34668 -10.5781 -59.2393 -41.2559 -70.876c-4.23145 -3.17285 -8.46289 -3.17285 -12.6943 -3.17285
c-10.5781 0 -21.1562 4.23145 -32.793 13.7529c-23.2734 20.0986 -27.5039 77.2227 -30.6777 138.578c-3.17383 47.6035 -6.34766 112.132 -23.2734 118.479c-3.17383 1.05859 -15.8682 2.11523 -47.6035 -34.9082c-34.9102 -41.2568 -15.8691 -68.7607 -14.8105 -69.8193
l-16.9258 -12.6943c-1.05859 2.11621 -31.7363 41.2559 15.8672 97.3223c29.6201 34.9092 51.835 47.6035 69.8193 41.2568c30.6777 -10.5791 33.8516 -68.7607 38.082 -137.521c3.17383 -48.6611 6.34766 -108.959 23.2734 -122.711
c9.51953 -7.40527 17.9844 -10.5781 24.3301 -8.46289c14.8096 5.28906 24.3311 38.083 27.5039 53.9502c2.11621 50.7773 12.6943 209.455 67.7021 209.455h1.05859zM57.124 371.307v21.1562h71.9336v-21.1562h-71.9336zM79.3389 348.033v70.876h21.1562v-70.876h-21.1562z
M56.0664 1.05762v21.1572h72.9912v-21.1572h-72.9912z" />
    <glyph glyph-name="uniF1A2" unicode="&#xf1a2;" 
d="M455.468 446.933c36.2666 -33.0664 56.5322 -78.9326 56.5332 -126.933c0 -49.0664 -20.2666 -93.8672 -56.5332 -126.934l-14.9346 16c32 29.8662 49.0664 69.333 49.0664 110.934c0 42.667 -17.0664 82.1338 -49.0664 110.934zM214.399 426.667
c-28.7998 -28.8008 -44.7998 -66.1348 -44.7988 -106.666c0 -39.4668 15.999 -77.8672 43.7324 -106.667l-14.9326 -14.9346c-31.999 33.0674 -50.1328 75.7344 -50.1328 121.601s18.1328 88.5332 51.1992 121.6zM410.667 409.601
c26.666 -22.4004 42.667 -55.4668 42.667 -89.5986c0 -33.0674 -14.9336 -65.0674 -39.4668 -87.4678l-13.8662 16c20.2656 18.1328 31.999 43.7334 31.999 71.4668s-12.7998 55.4668 -35.1992 73.5996zM258.134 389.333
c-19.2002 -18.1328 -29.8682 -42.666 -29.8682 -68.2676c0 -24.5332 9.59961 -47.999 26.667 -66.1328l-14.9326 -16c-21.333 22.4004 -33.0674 51.2002 -33.0674 81.0674c0 32 12.8008 61.8672 36.2676 84.2666zM375.468 370.133
c14.9326 -12.7988 23.4658 -30.9336 23.4658 -50.1328c0 -19.2002 -8.53223 -38.4004 -23.4658 -50.1338l-13.8672 16c10.667 8.5332 16 21.333 16 34.1338s-6.39941 25.5996 -16 34.1338zM294.4 349.867c-7.4668 -8.5332 -11.7334 -19.2002 -11.7334 -29.8662
c0 -10.667 4.2666 -21.333 11.7334 -29.8662l-16 -13.8672c-10.666 11.7324 -17.0664 27.7334 -17.0664 43.7334s6.40039 31.999 17.0664 43.7334zM327.467 353.066c18.1328 0 32 -13.8672 32 -30.9336s-13.8672 -30.9336 -32 -30.9336c-18.1338 0 -32 13.8672 -32 30.9336
s14.9336 30.9336 32 30.9336zM327.467 313.601c6.40039 0 10.667 4.26562 10.667 9.59961c0 4.2666 -4.2666 9.60059 -10.667 9.60059s-10.666 -4.26758 -10.666 -9.60059c0 -5.33398 5.33301 -9.59961 10.666 -9.59961zM316.801 165.333v136.534h21.333v-136.534h-21.333z
M0 166.4h397.867v-229.333h-397.867v229.333zM376.533 -41.5996v186.666h-355.2v-186.666h355.2zM381.866 166.4l10.668 -19.2012l-193.067 -106.666l-194.134 106.666l10.667 19.2012l183.467 -102.401zM380.078 -59.6885l-138.49 131.464l14.6885 15.4736l138.49 -131.464
zM17.9492 -60.376l-13.8291 16.2461l148.648 126.532l13.8291 -16.2461z" />
    </font>
</defs>
</svg>
